ML
     
  Уважаемый Гость!
Вы можете поддержать проект и зарегистрироваться у наших партнеров - онлайн-стратегия MyLands. При регистрации в игре Вы получите код, который сможете активировать после регистрации на pirat.ca и получить 1000 дублонов.

Ваш код:
a6d1ef7ff63e237add5a4c8b21d8aa937c5e9b4b
 
     

Бунт пернатых / Plumíferos - Aventuras voladoras (Дэниэл Дефилиппо / Daniel Defilippo, Густаво Джаннини / Gustavo Giannini) [2010 г., приключения, семейный, DVDRip] (MVO)

Ответить на тему
 
Автор
Сообщение

Пост 11-Дек-2011 11:30

[Q] 

Sirota

Легенда

Бунт пернатых / Plumíferos - Aventuras voladoras Год выпуска: 2010
Мировая премьера: 18 февраля 2010
Дата выхода DVD: 28 июля 2011, «CP-Digital»
Производство: Аргентина
Жанр: приключения, семейный
Продолжительность: 01:20:01
Перевод: профессиональный (многоголосый, закадровый)
Режиссер: Дэниэл Дефилиппо / Daniel Defilippo, Густаво Джаннини / Gustavo Giannini
В ролях: Мариано Мартинез
Луисана Лопилато
Mirta Wons
Карла Петерсон
Пето Менахем
Луис Мачин
Эстебан Проль
Фабио Ди Томасо
Описание: Эта увлекательная и полная приключений история происходит с птицами, обитающими в городе. Обычный воробей Хуан вдруг почувствовал себя уникальным и во что бы то ни стало пытается это доказать своим сородичам. А красавица-канарейка Фефи-хочет стать свободной и улетает из клетки, пытаясь начать новую, независимую жизнь. Ведь свобода-это так естественно для птиц!
Доп. информация: сценарий Claudio Andaur, Дэниэл Дефилиппо, Пето Менахем,
продюсер Густаво Джаннини, Carlos Salvatore, Хуан Хосе Кампанелла
IMDB, КиноПоиск
Источник/Качество: DVDRip
Формат: AVI
Видео кодек: XviD
Аудио кодек: AC3
Видео: 704x304 (2.32:1), 25 fps, XviD build 50 ~2150 kbps avg, 0.40 bit/pixel
Аудио: 48 kHz, AC3 Dolby Digital, 3/2 (L,C,R,l,r) + LFE ch, ~448.00 kbps avg
Субтитры: нет
General
Format : AVI
Format/Info : Audio Video Interleave
File size : 1.46 GiB
Duration : 1h 20mn
Overall bit rate : 2 609 Kbps
Writing application : VirtualDubMod 1.5.10.3 (build 2550/release)
Writing library : VirtualDubMod build 2550/release
Video #0
ID : 0
Format : MPEG-4 Visual
Format profile : [email protected]
Format settings, BVOP : Yes
Format settings, QPel : No
Format settings, GMC : No warppoints
Format settings, Matrix : Custom
Codec ID : XVID
Codec ID/Hint : XviD
Duration : 1h 20mn
Bit rate : 2 151 Kbps
Width : 704 pixels
Height : 304 pixels
Display aspect ratio : 2.35:1
Frame rate : 25.000 fps
Resolution : 24 bits
Colorimetry : 4:2:0
Scan type : Progressive
Bits/(Pixel*Frame) : 0.402
Stream size : 1.20 GiB (82%)
Writing library : XviD 1.2.1 (UTC 2008-12-04)
Audio #1
ID : 1
Format : AC-3
Format/Info : Audio Coding 3
Codec ID : 2000
Duration : 1h 20mn
Bit rate mode : Constant
Bit rate : 448 Kbps
Channel(s) : 6 channels
Channel positions : Front: L C R, Surround: L R, LFE
Sampling rate : 48.0 KHz
Stream size : 256 MiB (17%)
Alignment : Split accross interleaves
Interleave, duration : 40 ms (1.00 video frame)
Interleave, preload duration : 500 ms
-
-Релиз подготовлен:

-
-
Download / Скачать

Хотите скачать бесплатно? Зарегистрируйтесь на сайте (ссылка на регистрацию). Pirat.ca - самый быстрый торрент трекер в рунете!

Как скачивать  ·   Что такое торрент  ·   Рейтинг и ограничения

Пост 11-Дек-2011 13:56 (спустя 2 часа 25 минут)

Топик был перенесен из форума Мультипликация в форум Зарубежные полнометражные мультфильмы

zyyx
 

rezjus

Корсар

Пост 11-Дек-2011 18:57 (спустя 7 часов)

[Q] 

Спасибо за раздачу.
[Профиль]  [ЛС] 

LETHIK2010

Морской Волк

Пост 23-Янв-2012 11:41 (спустя 1 месяц 11 дней)

[Q] 

Спасибо!
[Профиль]  [ЛС] 

CHARLI2236

1089

Пост 30-Окт-2012 12:56 (спустя 9 месяцев 7 дней)

[Q] 

спасибо

_________________
[Профиль]  [ЛС] 
Показать сообщения:    
Ответить на тему

Текущее время: Сегодня 13:34

Часовой пояс: GMT + 4



Вы не можете начинать темы
Вы не можете отвечать на сообщения
Вы не можете редактировать свои сообщения
Вы не можете удалять свои сообщения
Вы не можете голосовать в опросах
Вы не можете прикреплять файлы к сообщениям
Вы не можете скачивать файлы

▼ Вниз