ML
     
  Уважаемый Гость!
Вы можете поддержать проект и зарегистрироваться у наших партнеров - онлайн-стратегия MyLands. При регистрации в игре Вы получите код, который сможете активировать после регистрации на pirat.ca и получить 1000 дублонов.

Ваш код:
c89b4b6523eaac3173e9a9c062ac1a19db575961
 
     

Вэлиант: Пернатый спецназ / Valiant (Гэри Чэпман / Gary Chapman) [2005 г., комедия, приключения, семейный, военный, BDRip] (Dub)

Ответить на тему
 
Автор
Сообщение

Пост 11-Дек-2011 12:01

[Q] 

Sirota

Легенда

Вэлиант: Пернатый спецназ / Valiant Год выпуска: 2005
Мировая премьера: 20 марта 2005
Российская премьера: 18 августа 2005, «Централ Партнершип»
Дата выхода DVD: 6 августа 2009, «CP-Digital»
Производство: США, Великобритания
Жанр: комедия, приключения, семейный, военный
Продолжительность: 01:15:48
Перевод: профессиональный (полное дублирование) + оригинал
Оригинальный аудиопоток: Английский
Автор(ы) перевода: Михаил Тихонов, Вячеслав Баранов, Александр Клюквин, Виктор Петров, Владимир Антоник
Режиссер: Гэри Чэпман / Gary Chapman
В ролях: Юэн МакГрегор
Рики Джервэйс
Тим Карри
Джим Броудбент
Хью Лори
Джон Клиз
Джон Хёрт
Пип Торренс
Рик Майял
Оливия Уильямс
Описание: На фронтах Второй мировой сражаются все. В том числе и птицы из Королевского голубиного управления. Их работа опасна, но престижна. И юный голубь Валиант больше всего на свете хочет стать членом этой команды.
Однажды Валианту везет — ему доверяют переправить секретный документ от французского сопротивления к британскому командованию. От скорости и предприимчивости голубя теперь зависит открытие Второго фронта. Ведь в его маленьком клюве — засекреченная дата высадки американских войск в Нормандии.
Доп. информация: сценарий Джордж Уэбстер, Джордан Кац, Джордж Мелрод
продюсер Джон Х. Уильямс, Кертис Огспургер, Барнеби Томпсон,
оператор Джон Феннер
композитор Джордж Фентон
художник Джон Бирн, Карл Джонс
монтаж Тиффани Л. Кертц, Джеймс Остин Стюарт
IMDB, КиноПоиск
Источник/Качество: BDRip (источник / Blu-Ray Remux/1080p)
Формат: AVI
Видео кодек: XviD
Аудио кодек: AC3
Видео: 704x384 (1.83:1), 23.976 fps, XviD build 50 ~1959 kbps avg, 0.30 bit/pixel
Аудио: Rus 48 kHz, AC3 Dolby Digital, 3/2 (L,C,R,l,r) + LFE ch, ~384.00 kbps avg
Аудио #2: Eng 48 kHz, AC3 Dolby Digital, 3/2 (L,C,R,l,r) + LFE ch, ~384.00 kbps avg
Субтитры: нет
General
Format : AVI
Format/Info : Audio Video Interleave
File size : 1.45 GiB
Duration : 1h 15mn
Overall bit rate : 2 742 Kbps
Director : Gellard
Genre : Adventure
Writing application : VirtualDubModRus 1.5.10.2 (build 2542/release)
Original source form/Name : Cartoon
Video #0
ID : 0
Format : MPEG-4 Visual
Format profile : [email protected]
Format settings, BVOP : Yes
Format settings, QPel : No
Format settings, GMC : No warppoints
Format settings, Matrix : Custom
Codec ID : XVID
Codec ID/Hint : XviD
Duration : 1h 15mn
Bit rate : 1 960 Kbps
Width : 704 pixels
Height : 384 pixels
Display aspect ratio : 16:9
Frame rate : 23.976 fps
Resolution : 24 bits
Colorimetry : 4:2:0
Scan type : Progressive
Bits/(Pixel*Frame) : 0.302
Stream size : 1.04 GiB (71%)
Writing library : XviD 1.2.1 (UTC 2008-12-04)
Audio #1
ID : 1
Format : AC-3
Format/Info : Audio Coding 3
Codec ID : 2000
Duration : 1h 15mn
Bit rate mode : Constant
Bit rate : 384 Kbps
Channel(s) : 6 channels
Channel positions : Front: L C R, Surround: L R, LFE
Sampling rate : 48.0 KHz
Stream size : 208 MiB (14%)
Alignment : Split accross interleaves
Interleave, duration : 42 ms (1.00 video frame)
Interleave, preload duration : 500 ms
Audio #2
ID : 2
Format : AC-3
Format/Info : Audio Coding 3
Codec ID : 2000
Duration : 1h 15mn
Bit rate mode : Constant
Bit rate : 384 Kbps
Channel(s) : 6 channels
Channel positions : Front: L C R, Surround: L R, LFE
Sampling rate : 48.0 KHz
Stream size : 208 MiB (14%)
Alignment : Split accross interleaves
Interleave, duration : 42 ms (1.00 video frame)
Interleave, preload duration : 500 ms
-
-Релиз подготовлен:

-
-
Download / Скачать

Хотите скачать бесплатно? Зарегистрируйтесь на сайте (ссылка на регистрацию). Pirat.ca - самый быстрый торрент трекер в рунете!

Как скачивать  ·   Что такое торрент  ·   Рейтинг и ограничения

Пост 11-Дек-2011 13:56 (спустя 1 час 55 минут)

Топик был перенесен из форума Мультипликация в форум Зарубежные полнометражные мультфильмы

zyyx
 

Vlad__treker

Морской Волк

184

Пост 23-Дек-2011 00:04 (спустя 11 дней)

[Q] 

Sirota, круть!

_________________
...:::Pirat.ca:::...
..:::The Best:::...
[Профиль]  [ЛС] 

CHARLI2236

1098

Пост 30-Окт-2012 12:59 (спустя 10 месяцев 7 дней)

[Q] 

благодарю

_________________
[Профиль]  [ЛС] 
Показать сообщения:    
Ответить на тему

Текущее время: Сегодня 22:34

Часовой пояс: GMT + 4



Вы не можете начинать темы
Вы не можете отвечать на сообщения
Вы не можете редактировать свои сообщения
Вы не можете удалять свои сообщения
Вы не можете голосовать в опросах
Вы не можете прикреплять файлы к сообщениям
Вы не можете скачивать файлы

▼ Вниз