ML
     
  Уважаемый Гость!
Вы можете поддержать проект и зарегистрироваться у наших партнеров - онлайн-стратегия MyLands. При регистрации в игре Вы получите код, который сможете активировать после регистрации на pirat.ca и получить 1000 дублонов.

Ваш код:
a6d1ef7ff63e237add5a4c8b21d8aa937c5e9b4b
 
     

Принцесса и лягушка / The Princess and the Frog (Рон Клементс, Джон Маскер / Ron Clements, John Musker) [2009 г., мюзикл, фэнтези, мелодрама, семейный, HDRip] (Dub)

Ответить на тему
 
Автор
Сообщение

Пост 11-Дек-2011 12:38

[Q] 

Sirota

Легенда

Принцесса и лягушка / The Princess and the Frog Год выпуска: 2009
Мировая премьера: 25 ноября 2009
Российская премьера: 1 января 2010, «BVSPR Disney»
Дата выхода DVD: 30 марта 2010, «Уолт Дисней Компани СНГ»
Производство: США
Жанр: мюзикл, фэнтези, мелодрама, семейный
Продолжительность: 01:37:27
Перевод: профессиональный (полное дублирование) лицензия
Автор(ы) перевода: Анна Бутурлина, Стас Пьеха, Андрей Белявский, Билли Новик, Асет Самраилова
Режиссер: Рон Клементс, Джон Маскер / Ron Clements, John Musker
В ролях: Аника Нони Роуз (Tiana), Бруно Кампос (Prince Naveen), Кит Дэвид (Dr. Facilier), Michael-Leon Wooley (Louis), Дженнифер Коуди (Charlotte), Джим Каммингс (Ray), Питер Бартлетт (Lawrence), Дженифер Льюис (Mama Odie), Опра Уинфри (Eudora), Терренс Ховард (James), Джон Гудмен ('Big Daddy' La Bouff), Elizabeth M. Dampier (Young Tiana)
Описание: Все мы знаем, что бывает, когда принц целует заколдованную в лягушку принцессу. Но что случится, если переодетая в принцессу официантка поцелует лягушку-принца?
Команда мультипликаторов под руководством Рона Клементса и Джона Маскера, создателей «Русалочки» и «Аладдина», а также обладатель премии «Оскар» композитор Рэнди Ньюман поведают самую прекрасную историю любви на свете… с участием лягушек, магии Вуду и поющего аллигатора.
Доп. информация: сценарий Рон Клементс, Джон Маскер, Уилл Ксаклос,
продюсер Питер Дел Вечо, Джон Лассетер, Крэйг Сост
композитор Рэнди Ньюман
художник Джеймс Аарон Финч, Йен Гудинг
монтаж Джефф Дрэхейм
бюджет $105 000 000
сборы в США $104 400 899
сборы в мире + $162 868 872 = $267 269 771
сборы в России $5 141 150

IMDB, КиноПоиск
Источник/Качество: HDRip
Формат: AVI
Видео кодек: XviD
Аудио кодек: AC3
Видео: 720x400 (1.80:1), 23.976 fps, XviD build 46 ~1744 kbps avg, 0.25 bit/pixel
Аудио: 48 kHz, AC3 Dolby Digital, 3/2 (L,C,R,l,r) + LFE ch, ~384.00 kbps avg
Субтитры: нет
Оскар, 2010 год
Номинации (3):
Лучшая песня — «Down in New Orleans»
Лучшая песня — «Almost There»
Лучший анимационный фильм
Золотой глобус, 2010 год
Номинации (1):
Лучший анимационный фильм
General
Format : AVI
Format/Info : Audio Video Interleave
File size : 1.46 GiB
Duration : 1h 37mn
Overall bit rate : 2 138 Kbps
Movie name : Принцесса и лягушка / The Princess and the Frog (2009)
Director : vladaudi (BDRip 720)
Writing application : VirtualDubMod 1.5.10.3 (build 2550/release)
Copyright : HQ-ViDEO (www.hq-video.ru)
Comment : 08.04.2010
Video #0
ID : 0
Format : MPEG-4 Visual
Format profile : [email protected]
Format settings, BVOP : Yes
Format settings, QPel : No
Format settings, GMC : No warppoints
Format settings, Matrix : Default (MPEG)
Codec ID : XVID
Codec ID/Hint : XviD
Duration : 1h 37mn
Bit rate : 1 745 Kbps
Width : 720 pixels
Height : 400 pixels
Display aspect ratio : 16:9
Frame rate : 23.976 fps
Resolution : 24 bits
Colorimetry : 4:2:0
Scan type : Progressive
Bits/(Pixel*Frame) : 0.253
Stream size : 1.19 GiB (82%)
Writing library : XviD 1.1.2 (UTC 2006-11-01)
Audio #1
ID : 1
Format : AC-3
Format/Info : Audio Coding 3
Codec ID : 2000
Duration : 1h 37mn
Bit rate mode : Constant
Bit rate : 384 Kbps
Channel(s) : 6 channels
Channel positions : Front: L C R, Surround: L R, LFE
Sampling rate : 48.0 KHz
Stream size : 268 MiB (18%)
Alignment : Split accross interleaves
Interleave, duration : 42 ms (1.00 video frame)
Interleave, preload duration : 500 ms
Download / Скачать

Хотите скачать бесплатно? Зарегистрируйтесь на сайте (ссылка на регистрацию). Pirat.ca - самый быстрый торрент трекер в рунете!

Как скачивать  ·   Что такое торрент  ·   Рейтинг и ограничения

Пост 11-Дек-2011 13:56 (спустя 1 час 17 минут)

Топик был перенесен из форума Мультипликация в форум Зарубежные полнометражные мультфильмы

zyyx
 

LETHIK2010

Морской Волк

Пост 23-Янв-2012 11:42 (спустя 1 месяц 11 дней)

[Q] 

Спасибо за раздачу. Посмотрим.
[Профиль]  [ЛС] 

maksvel 1979

Лоцман

Пост 27-Сен-2012 12:23 (спустя 8 месяцев 4 дня)

[Q] 

Спасибо за раздачу!!! bp bp bp
[Профиль]  [ЛС] 

CHARLI2236

1089

Пост 30-Окт-2012 13:26 (спустя 1 месяц 3 дня)

[Q] 

спасибо

_________________
[Профиль]  [ЛС] 

vgs75rus

Лоцман

Пост 03-Янв-2013 15:30 (спустя 2 месяца 4 дня)

[Q] 

спасибо
[Профиль]  [ЛС] 

merzsergio

Шкипер

Пост 14-Фев-2013 17:11 (спустя 1 месяц 11 дней)

[Q] 

Скорости бы,а то дочь просит, а то 30,4kb/s как-то несерьезно
[Профиль]  [ЛС] 

shalonina

Гроза морей

Пост 26-Авг-2014 16:54 (спустя 1 год 6 месяцев)

[Q] 

Спасибо!!!

_________________
[Профиль]  [ЛС] 

Alexe10

Гроза морей

36

Пост 23-Окт-2014 22:21 (спустя 1 месяц 28 дней)

[Q] 

Супер! Автору респект!!!
[Профиль]  [ЛС] 
Показать сообщения:    
Ответить на тему

Текущее время: Сегодня 13:31

Часовой пояс: GMT + 4



Вы не можете начинать темы
Вы не можете отвечать на сообщения
Вы не можете редактировать свои сообщения
Вы не можете удалять свои сообщения
Вы не можете голосовать в опросах
Вы не можете прикреплять файлы к сообщениям
Вы не можете скачивать файлы

▼ Вниз