ML
     
  Уважаемый Гость!
Вы можете поддержать проект и зарегистрироваться у наших партнеров - онлайн-стратегия MyLands. При регистрации в игре Вы получите код, который сможете активировать после регистрации на pirat.ca и получить 1000 дублонов.

Ваш код:
193c38d0130f05c24de871678ea3ac181461757d
 
     

Три разбойника / Die Drei Räuber (Хайо Фрайтаг / Hayo Fraytag) [2007 г., комедия, приключения, криминал, семейный, DVDRip] (Dub)

Ответить на тему
 
Автор
Сообщение

Пост 11-Дек-2011 13:18

[Q] 

Sirota

Легенда

Три разбойника / Die Drei Räuber Год выпуска: 2007
Мировая премьера: 18 октября 2007
Российская премьера: 6 ноября 2008, «Настроение»
Дата выхода DVD: 18 декабря 2008, «Настроение Video»
Производство: Германия
Жанр: комедия, приключения, криминал, семейный
Продолжительность: 01:15:02
Перевод: профессиональный (полное дублирование)
Режиссер: Хайо Фрайтаг / Hayo Fraytag
В ролях: Йоахим Круль
Бела Б. Фельзенхаймер
Чарли Хюбнер
Катарина Тальбах
Elena Kreil
Konstantin Seldenstücker
Максимилиан Рока Юнгфер
Эрвин Ледер
Хайо Фрайтаг
Томи Унгерер
Описание: Злая Тетка содержит высоко в горах приют, где эксплуатирует детский труд. Сироты день и ночь собирают для нее сахарную свеклу, а Злая Тетка объедается сладостями. Тиффани в приют не хочет, поэтому, когда на ее карету нападают разбойники, выдает себя за индийскую принцессу, сдается в плен и обещает разбойникам сказочные богатства в качестве выкупа.
Конечно, ее обман скоро раскроется, и Тиффани отправится в приют. Но… Разбойникам так понравилось жить с Тиффани, что они решают вернуть ее, а заодно освобождают всех детей приюта от гнета злостной хозяйки.
Доп. информация: сценарий Хайо Фрайтаг, Martin Quaden, Ахим фон Боррис,
продюсер Stephan Schesch, Штефан Арндт, Дэвид Греневольд,
композитор Кеннет Пэттенгейл
художник Хайо Фрайтаг, Gerlinde Godelmann
монтаж Ларс Джордан, Саша Фолфф
IMDB, КиноПоиск
Источник/Качество: DVDRip
Формат: AVI
Видео кодек: XviD
Аудио кодек: AC3
Видео: 704x384 (1.83:1), 25 fps, XviD MPEG-4 ~2151 kbps avg, 0.32 bit/pixel
Аудио: 48 kHz, AC3 Dolby Digital, 3/2 (L,C,R,l,r) + LFE ch, ~448.00 kbps avg
Субтитры: нет
General
Format : AVI
Format/Info : Audio Video Interleave
File size : 1.37 GiB
Duration : 1h 15mn
Overall bit rate : 2 609 Kbps
Writing application : VirtualDubMod 1.5.10.2 (build 2540/release)
Writing library : VirtualDubMod build 2540/release
Video #0
ID : 0
Format : MPEG-4 Visual
Format profile : [email protected]
Format settings, BVOP : Yes
Format settings, QPel : No
Format settings, GMC : No warppoints
Format settings, Matrix : Default (MPEG)
Muxing mode : Packed bitstream
Codec ID : XVID
Codec ID/Hint : XviD
Duration : 1h 15mn
Bit rate : 2 152 Kbps
Width : 704 pixels
Height : 384 pixels
Display aspect ratio : 16:9
Frame rate : 25.000 fps
Resolution : 24 bits
Colorimetry : 4:2:0
Scan type : Progressive
Bits/(Pixel*Frame) : 0.318
Stream size : 1.13 GiB (82%)
Writing library : XviD 1.2.0.dev47 (UTC 2006-11-01)
Audio #1
ID : 1
Format : AC-3
Format/Info : Audio Coding 3
Codec ID : 2000
Duration : 1h 15mn
Bit rate mode : Constant
Bit rate : 448 Kbps
Channel(s) : 6 channels
Channel positions : Front: L C R, Surround: L R, LFE
Sampling rate : 48.0 KHz
Stream size : 240 MiB (17%)
Alignment : Split accross interleaves
Interleave, duration : 40 ms (1.00 video frame)
Interleave, preload duration : 500 ms
-
-Релиз подготовлен:

-
-
Download / Скачать

Хотите скачать бесплатно? Зарегистрируйтесь на сайте (ссылка на регистрацию). Pirat.ca - самый быстрый торрент трекер в рунете!

Как скачивать  ·   Что такое торрент  ·   Рейтинг и ограничения

Пост 11-Дек-2011 13:56 (спустя 37 минут)

Топик был перенесен из форума Мультипликация в форум Зарубежные полнометражные мультфильмы

zyyx
 

Vlad__treker

Морской Волк

184

Пост 13-Дек-2011 17:19 (спустя 2 дня 4 часа)

[Q] 

Sirota, спасибу нажал!

_________________
...:::Pirat.ca:::...
..:::The Best:::...
[Профиль]  [ЛС] 

ursus

Морской Волк

Пост 01-Фев-2012 23:21 (спустя 1 месяц 19 дней)

[Q] 

[Профиль]  [ЛС] 

CHARLI2236

1092

Пост 30-Окт-2012 13:38 (спустя 8 месяцев 28 дней)

[Q] 

спс

_________________
[Профиль]  [ЛС] 

darkenral

Лоцман

Пост 21-Ноя-2012 19:39 (спустя 22 дня)

[Q] 

Огромное спасибо за этот замечательный мультфильм!
[Профиль]  [ЛС] 

shalonina

Гроза морей

Пост 26-Авг-2014 17:15 (спустя 1 год 9 месяцев)

[Q] 

помогу с раздачей...............................................

_________________
[Профиль]  [ЛС] 
Показать сообщения:    
Ответить на тему

Текущее время: Сегодня 18:04

Часовой пояс: GMT + 4



Вы не можете начинать темы
Вы не можете отвечать на сообщения
Вы не можете редактировать свои сообщения
Вы не можете удалять свои сообщения
Вы не можете голосовать в опросах
Вы не можете прикреплять файлы к сообщениям
Вы не можете скачивать файлы

▼ Вниз