ML
     
  Уважаемый Гость!
Вы можете поддержать проект и зарегистрироваться у наших партнеров - онлайн-стратегия MyLands. При регистрации в игре Вы получите код, который сможете активировать после регистрации на pirat.ca и получить 1000 дублонов.

Ваш код:
2932e5898d0a27592397f70b82a5834d1e70ea19
 
     

Анастасия / Anastasia (Дон Блат / Don Bluth, Гари Голдман / Gary Goldman) [1997 г., мюзикл, фэнтези, драма, приключения, семейный, BDRip] (Dub)

Ответить на тему
 
Автор
Сообщение

Пост 11-Дек-2011 14:13

[Q] 

Sirota

Легенда

Анастасия / Anastasia Год выпуска: 1997
Мировая премьера: 14 ноября 1997
Российская премьера: 13 марта 1998, «Гемини Киномир»
Дата выхода DVD: 12 февраля 2009, «Двадцатый Век Фокс СНГ»
Производство: США
Жанр: мюзикл, фэнтези, драма, приключения, семейный
Продолжительность: 01:34:10
Перевод: профессиональный (полное дублирование) лицензия
Автор(ы) перевода: Мария Кац, Сергей Вещёв, Андрей Ярославцев , Владимир Винокур, Александр Буйнов
Режиссер: Дон Блат / Don Bluth, Гари Голдман / Gary Goldman
В ролях: Мег Райан
Джон Кьюсак
Келси Грэммер
Кристофер Ллойд
Хэнк Азария
Бернадетт Питерс
Кирстен Данст
Анджела Лэнсбери
Рик Джонс
Андреа Мартин
Описание: Анастасия — дочка последнего русского царя Николая, погубленного зловещим Распутиным. Ей удается спастись, добраться вместе с бабушкой до переполненного вокзала и… потеряться в толпе. Проходит десять лет. Анастасия стала взрослой красавицей и теперь хочет попасть в Париж. Сможет ли царевна осуществить задуманное? Ведь Распутин уже поднялся из своей могилы…
Доп. информация: режиссер Дон Блут, Гари Голдман
сценарий Сьюзэн Готье, Брюс Грэхэм, Боб Цудикер,
продюсер Дон Блут, Гари Голдман, Морин Донли,
композитор Дэвид Ньюман
художник Майкл Перраса мл.
монтаж Боб Бендер, Фиона Трэйлер
бюджет $53 000 000
сборы в США $58 406 347
сборы в мире + $81 398 001 = $139 804 348

Сэмпл, IMDB, КиноПоиск
Источник/Качество: BDRip (источник: HDBits / Blu-ray Disc / 1080p)
Формат: AVI
Видео кодек: XviD
Аудио кодек: AC3
Видео: 720x304 (2.37:1), 23.976 fps, XviD build 62 ~1812 kbps avg, 0.35 bit/pixel
Аудио: 48 kHz, AC3 Dolby Digital, 3/2 (L,C,R,l,r) + LFE ch, ~384.00 kbps avg
Субтитры: нет
Оскар, 1998 год
Номинации (2):
Лучшая песня — «Journey To The Past»
Лучший саундтрек к музыкальному/комедийному фильму
Золотой глобус, 1998 год
Номинации (2):
Лучшая песня — «Journey To The Past»
Лучшая песня — «Once Upon A December»
General
Format : AVI
Format/Info : Audio Video Interleave
File size : 1.45 GiB
Duration : 1h 34mn
Overall bit rate : 2 206 Kbps
Movie name : Anastasiya.1997.RUS.BDRip.XviD.AC3.
Writing application : VirtualDubMod 1.5.10.2 (build 2542/release)
Comment : 23.03.2011
Video #0
ID : 0
Format : MPEG-4 Visual
Format profile : [email protected]
Format settings, BVOP : Yes
Format settings, QPel : No
Format settings, GMC : No warppoints
Format settings, Matrix : Custom
Codec ID : XVID
Codec ID/Hint : XviD
Duration : 1h 34mn
Bit rate : 1 813 Kbps
Width : 720 pixels
Height : 304 pixels
Display aspect ratio : 2.35:1
Frame rate : 23.976 fps
Resolution : 24 bits
Colorimetry : 4:2:0
Scan type : Progressive
Bits/(Pixel*Frame) : 0.345
Stream size : 1.19 GiB (82%)
Writing library : XviD 62
Audio #1
ID : 1
Format : AC-3
Format/Info : Audio Coding 3
Codec ID : 2000
Duration : 1h 34mn
Bit rate mode : Constant
Bit rate : 384 Kbps
Channel(s) : 6 channels
Channel positions : Front: L C R, Surround: L R, LFE
Sampling rate : 48.0 KHz
Stream size : 259 MiB (17%)
Alignment : Split accross interleaves
Interleave, duration : 42 ms (1.00 video frame)
Interleave, preload duration : 500 ms
-
-Релиз подготовлен:

-
-
Download / Скачать

Хотите скачать бесплатно? Зарегистрируйтесь на сайте (ссылка на регистрацию). Pirat.ca - самый быстрый торрент трекер в рунете!

Как скачивать  ·   Что такое торрент  ·   Рейтинг и ограничения

Пост 11-Дек-2011 14:25 (спустя 12 минут)

Топик был перенесен из форума Мультипликация в форум Зарубежные полнометражные мультфильмы

zyyx
 

CHARLI2236

1096

Пост 30-Окт-2012 12:47 (спустя 10 месяцев 18 дней)

[Q] 

спасибо

_________________
[Профиль]  [ЛС] 

Alexe10

Гроза морей

36

Пост 23-Окт-2014 22:23 (спустя 1 год 11 месяцев)

[Q] 

Супер! Раздающему респект!
[Профиль]  [ЛС] 

f1e1s1

Штурман

Пост 06-Дек-2014 23:30 (спустя 1 месяц 14 дней)

[Q] 

офигенный мультик rum
[Профиль]  [ЛС] 

Ukflbec

Штурман

Пост 21-Мар-2015 14:08 (спустя 3 месяца 14 дней)

[Q] 

lf да да да да
[Профиль]  [ЛС] 
Показать сообщения:    
Ответить на тему

Текущее время: Сегодня 08:01

Часовой пояс: GMT + 4



Вы не можете начинать темы
Вы не можете отвечать на сообщения
Вы не можете редактировать свои сообщения
Вы не можете удалять свои сообщения
Вы не можете голосовать в опросах
Вы не можете прикреплять файлы к сообщениям
Вы не можете скачивать файлы

▼ Вниз