ML
     
  Уважаемый Гость!
Вы можете поддержать проект и зарегистрироваться у наших партнеров - онлайн-стратегия MyLands. При регистрации в игре Вы получите код, который сможете активировать после регистрации на pirat.ca и получить 1000 дублонов.

Ваш код:
a978488e62322cd72e113ab723b8a7fdc10eb9b9
 
     

Лего: Приключения Клатча Пауэрса / Lego: The Adventures of Clutch Powers (Ховард Э. Бэйкер / Howard E. Baker) [2010 г., приключения, семейный, DVDRip] (Dub)

Ответить на тему
 
Автор
Сообщение

Пост 11-Дек-2011 14:44

[Q] 

Sirota

Легенда

Лего: Приключения Клатча Пауэрса / Lego: The Adventures of Clutch Powers Год выпуска: 2010
Мировая премьера: 4 марта 2010
Дата выхода DVD: 10 марта 2010, «Юниверсал Пикчерс Рус»
Производство: США
Жанр: приключения, семейный
Продолжительность: 01:18:18
Перевод: профессиональный (полное дублирование) лицензия + оригинал
Оригинальный аудиопоток: Английский
Режиссер: Ховард Э. Бэйкер / Howard E. Baker
В ролях: Райан МакПартлин
Ивонн Страховски
Пол Майкл Глейзер
Роджер Роуз
Джефф Беннетт
Грегг Бергер
Стефан Кокс
Алекс Десерт
Крис Хардвик
Крис Эмерсон
Описание: Познакомьтесь с Клатчем Пауэрсом, лучшим строителем и исследователем во Вселенной LEGO, выполняющим самую опасную миссию в жизни. Удивительные приключения приводят Клатча и его команду экспертов LEGO из Города LEGO на планету-тюрьму Космической Полиции, где они переносятся в средневековый мир Ашлар.
Они должны помочь законному наследнику королевского трона найти мужество отвоевать свое королевство у злого волшебника Мэллока Малина. Способности героев к конструированию подвергнутся серьезному испытанию в битве с армией скелетов Мэллока.
Доп. информация: сценарий Том Роджерс, Джошуа Уэкслер
продюсер Кристи Скэнлэн, Джошуа Уэкслер, Ховард Э. Бэйкер,
композитор Дэвид Вурст, Эрик Вурст
художник John Calmette
монтаж Майкл Д. Блэк
IMDB, КиноПоиск
Источник/Качество: DVDRip
Формат: AVI
Видео кодек: XviD
Аудио кодек: AC3
Видео: 704x384 (1.83:1), 25 fps, XviD MPEG-4 ~1850 kbps avg, 0.27 bit/pixel
Аудио: Rus 48 kHz, AC3 Dolby Digital, 3/2 (L,C,R,l,r) + LFE ch, ~448.00 kbps avg
Аудио #2: Eng 48 kHz, AC3 Dolby Digital, 2/0 (L,R) ch, ~192.00 kbps avg (оригинал)
Субтитры: нет
General
Format : AVI
Format/Info : Audio Video Interleave
File size : 1.37 GiB
Duration : 1h 18mn
Overall bit rate : 2 506 Kbps
Writing application : VirtualDubMod 1.5.10.2 (build 2540/release)
Writing library : VirtualDubMod build 2540/release
Video #0
ID : 0
Format : MPEG-4 Visual
Format profile : [email protected]
Format settings, BVOP : Yes
Format settings, QPel : No
Format settings, GMC : No warppoints
Format settings, Matrix : Default (H.263)
Muxing mode : Packed bitstream
Codec ID : XVID
Codec ID/Hint : XviD
Duration : 1h 18mn
Bit rate : 1 851 Kbps
Width : 704 pixels
Height : 384 pixels
Display aspect ratio : 16:9
Frame rate : 25.000 fps
Resolution : 24 bits
Colorimetry : 4:2:0
Scan type : Progressive
Bits/(Pixel*Frame) : 0.274
Stream size : 1.01 GiB (74%)
Writing library : XviD 1.2.1 (UTC 2008-12-04)
Audio #1
ID : 1
Format : AC-3
Format/Info : Audio Coding 3
Codec ID : 2000
Duration : 1h 18mn
Bit rate mode : Constant
Bit rate : 448 Kbps
Channel(s) : 6 channels
Channel positions : Front: L C R, Surround: L R, LFE
Sampling rate : 48.0 KHz
Stream size : 251 MiB (18%)
Alignment : Split accross interleaves
Interleave, duration : 40 ms (1.00 video frame)
Interleave, preload duration : 500 ms
Audio #2
ID : 2
Format : AC-3
Format/Info : Audio Coding 3
Codec ID : 2000
Duration : 1h 18mn
Bit rate mode : Constant
Bit rate : 192 Kbps
Channel(s) : 2 channels
Channel positions : L R
Sampling rate : 48.0 KHz
Stream size : 108 MiB (8%)
Alignment : Split accross interleaves
Interleave, duration : 40 ms (1.00 video frame)
Interleave, preload duration : 500 ms
Download / Скачать

Хотите скачать бесплатно? Зарегистрируйтесь на сайте (ссылка на регистрацию). Pirat.ca - самый быстрый торрент трекер в рунете!

Как скачивать  ·   Что такое торрент  ·   Рейтинг и ограничения

Пост 11-Дек-2011 16:41 (спустя 1 час 57 минут)

Топик был перенесен из форума Мультипликация в форум Зарубежные полнометражные мультфильмы

CaptRom
 

mm1983mm

Штурман

Пост 27-Дек-2011 21:28 (спустя 16 дней)

[Q] 

заценим
[Профиль]  [ЛС] 

CHARLI2236

1096

Пост 30-Окт-2012 13:15 (спустя 10 месяцев 2 дня)

[Q] 

спс

_________________
[Профиль]  [ЛС] 

Воффка

Морской Волк

Пост 19-Янв-2013 10:48 (спустя 2 месяца 19 дней)

[Q] 

пасиба

_________________
-= Водка, шлюхи, Death Metal!!!=-
[Профиль]  [ЛС] 
Показать сообщения:    
Ответить на тему

Текущее время: Сегодня 22:07

Часовой пояс: GMT + 4



Вы не можете начинать темы
Вы не можете отвечать на сообщения
Вы не можете редактировать свои сообщения
Вы не можете удалять свои сообщения
Вы не можете голосовать в опросах
Вы не можете прикреплять файлы к сообщениям
Вы не можете скачивать файлы

▼ Вниз