ML
     
  Уважаемый Гость!
Вы можете поддержать проект и зарегистрироваться у наших партнеров - онлайн-стратегия MyLands. При регистрации в игре Вы получите код, который сможете активировать после регистрации на pirat.ca и получить 1000 дублонов.

Ваш код:
73640f24f8a0f579e128ea7346fd2db2b1009143
 
     

Бэтмен: Возвращение Темного рыцаря. Часть 1 / Batman: The Dark Knight Returns, Part 1 (Джей Олива / Jay Oliva) [2012 г., мультфильм, боевик, DVDRip] Dub + Original (Eng)

Ответить на тему
 
Автор
Сообщение

Пост 13-Сен-2012 13:52

[Q] 

kiryandr

Легенда

-Бэтмен: Возвращение Темного рыцаря. Часть 1 / Batman: The Dark Knight Returns, Part 1-- Производство: США / Warner Bros. Animation, Warner Premiere, DC Entertainment
Режиссер: Джей Олива / Jay Oliva
Жанр: мультфильм, боевик
Год выпуска: 2012 г.
Продолжительность: 01:13:10
Мировая премьера: 12 сентября 2012
Российская премьера: 27 сентября 2012, «CP Дистрибуция»
Перевод: Профессиональный (полное дублирование)
Оригинальный аудиопоток: английский
Роли озвучивали: Эриель Винтер, Питер Уэллер, Майкл Эмерсон, Майкл МакКин, Уэйд Уильямс, Роб Полсен, Морис ЛаМарш, Гари Энтони Уильямс, Дэвид Селби, Гари Стургис-Описание: 56-летний Брюс Уэйн возвращается к борьбе с преступностью из отставки, однако встречается с оппозицией в лице полиции Готэм-сити и правительства США.-Сэмпл IMDB КиноПоиск
Качество видео: DVDRip
Формат видео: AVI
Видео кодек: XviD
Аудио кодек: AC3
Видео: 720х384, 2084 Кбит/сек, 25,000 кадров/сек, 0.301
Аудио: AC3, (2 ch) 192 Кбит/сек, 48,0 КГц [Русский]
Аудио #2: AC3, (6 ch) 384 Кбит/сек, 48,0 КГц [Английский]
Cубтитры: отсутствуют
Полное имя : Betmen Vozvrashhenije Temnogo rycar'a. Chast' 1 (2012) DVDRip 1400mb.avi
Формат : AVI
Формат/Информация : Audio Video Interleave
Размер файла : 1,36 Гбайт
Продолжительность : 1 ч. 13 м.
Общий поток : 2671 Кбит/сек
Видео
Идентификатор : 0
Формат : MPEG-4 Visual
Профиль формата : Advanced [email protected]
Параметр BVOP формата : 2
Параметр QPel формата : Нет
Параметр GMC формата : Без точки перехода
Параметр матрицы формата : Default (MPEG)
Режим смешивания : Сжатый битовый поток
Идентификатор кодека : XVID
Идентификатор кодека/Подсказка : XviD
Продолжительность : 1 ч. 13 м.
Битрейт : 2084 Кбит/сек
Ширина : 720 пикселей
Высота : 384 пикселя
Соотношение сторон : 1,85:1
Частота кадров : 25,000 кадров/сек
Цветовое пространство : YUV
Субдискретизация насыщенности : 4:2:0
Битовая глубина : 8 бит
Тип развёртки : Прогрессивная
Метод сжатия : С потерями
Бит/(Пиксели*Кадры) : 0.301
Размер потока : 1,07 Гбайт (78%)
Библиотека кодирования : XviD 1.2.1 (UTC 2008-12-04)
Аудио #1
Идентификатор : 1
Формат : AC-3
Формат/Информация : Audio Coding 3
Профиль формата : Dolby Digital
Расширение режима : CM (complete main)
Параметр Endianness формата : Big
Идентификатор кодека : 2000
Продолжительность : 1 ч. 13 м.
Вид битрейта : Постоянный
Битрейт : 192 Кбит/сек
Каналы : 2 канала
Расположение каналов : Front: L R
Частота : 48,0 КГц
Битовая глубина : 16 бит
Метод сжатия : С потерями
Размер потока : 100 Мбайт (7%)
Выравнивание : Соединение по промежуткам
Продолжительность промежутка : 64 мс. (1,60 видеокадра)
Время предзагрузки промежутка : 192 мс.
Заголовок : AudioFile_83
Аудио #2
Идентификатор : 2
Формат : AC-3
Формат/Информация : Audio Coding 3
Расширение режима : CM (complete main)
Параметр Endianness формата : Big
Идентификатор кодека : 2000
Продолжительность : 1 ч. 13 м.
Вид битрейта : Постоянный
Битрейт : 384 Кбит/сек
Каналы : 6 каналов
Расположение каналов : Front: L C R, Side: L R, LFE
Частота : 48,0 КГц
Битовая глубина : 16 бит
Метод сжатия : С потерями
Размер потока : 201 Мбайт (14%)
Выравнивание : Соединение по промежуткам
Продолжительность промежутка : 64 мс. (1,60 видеокадра)
Время предзагрузки промежутка : 192 мс.
Заголовок : AudioFile_80
Download / Скачать

Хотите скачать бесплатно? Зарегистрируйтесь на сайте (ссылка на регистрацию). Pirat.ca - самый быстрый торрент трекер в рунете!

Как скачивать  ·   Что такое торрент  ·   Рейтинг и ограничения

Пост 13-Сен-2012 15:14 (спустя 1 час 22 минуты)

Топик был перенесен из форума Мультфильмы (Трюм) в форум Новинки (HD|DVD|BD|TV|SAT|PDTV| - Rips)

ara1205
 

PTteam

Морской Волк

Пост 13-Сен-2012 19:28 (спустя 5 часов)

[Q] 

[Профиль]  [ЛС] 

pro100userspb

Корсар

Пост 13-Сен-2012 22:00 (спустя 2 часа 32 минуты)

[Q] 

глянем

_________________
[Профиль]  [ЛС] 

СерВолк

Корсар

Пост 14-Сен-2012 18:32 (спустя 20 часов)

[Q] 

тык это мульт .. мы с женой думали что фильмец dc
[Профиль]  [ЛС] 

gamm1beer

Морской Волк

Пост 15-Сен-2012 00:39 (спустя 6 часов)

[Q] 

тьфу ёлки тоже повёлся на кино cg

_________________
[Профиль]  [ЛС] 

demanix

Штурман

Пост 15-Сен-2012 02:27 (спустя 1 час 48 минут)

[Q] 

ждём 2 часть!!!! aa
[Профиль]  [ЛС] 

Артёмыч

Штурман

Пост 18-Сен-2012 22:35 (спустя 3 дня)

[Q] 

Причем нарисовон както не ок. судя по скринам.
[Профиль]  [ЛС] 

KadaFFi

Корсар

Пост 19-Сен-2012 00:56 (спустя 2 часа 21 минута)

[Q] 

И как? Стоит смотреть?

_________________
[Профиль]  [ЛС] 

Лукинофф

Штурман

Пост 19-Сен-2012 08:59 (спустя 8 часов)

[Q] 

Ну и назвали файла :) Betmen
Batman если чо :)
[Профиль]  [ЛС] 

<LeXeR>

Лоцман

Пост 20-Сен-2012 14:37 (спустя 1 день 5 часов)

[Q] 

[Профиль]  [ЛС] 

Alekc-rus

Морской Волк

Пост 20-Сен-2012 16:35 (спустя 1 час 57 минут)

[Q] 

Че за хрень таке? ap
[Профиль]  [ЛС] 

Aleks44

Гроза морей

Пост 20-Сен-2012 17:41 (спустя 1 час 6 минут)

[Q] 

Для 2012 года слабоваты спец эффекты, да и мульт средний после этого мульта смотрел Обитель зла: Проклятие мульт намного лучше по всем параметром
[Профиль]  [ЛС] 

Дон Кихот

Корсар

Пост 20-Сен-2012 20:30 (спустя 2 часа 48 минут)

[Q] 

Тоже проглядел , что это мультфильм .Поддерживаю
230134Для 2012 года слабоваты спец эффекты, да и мульт средний после этого мульта смотрел Обитель зла: Проклятие мульт намного лучше по всем параметром
[Профиль]  [ЛС] 

RealPars

Штурман

Пост 03-Фев-2013 01:44 (спустя 4 месяца 12 дней)

[Q] 

Дилогия "Возвращение темного рыцаря" произвела на меня практически такой же эффект, как и Нолановская трилогия. Хотя мультфильм все же можно назвать на любителя, ибо что бы понять всю прелесть нужно быть хоть мало-мальских фанатом бэтмена, и под фанатом я имею ввиду тех кто любил его еще до выше упомянутой трилогии)
[Профиль]  [ЛС] 

kelto

Шкипер

Пост 21-Апр-2013 04:05 (спустя 2 месяца 18 дней)

[Q] 

[Профиль]  [ЛС] 
Показать сообщения:    
Ответить на тему

Текущее время: Сегодня 22:37

Часовой пояс: GMT + 4



Вы не можете начинать темы
Вы не можете отвечать на сообщения
Вы не можете редактировать свои сообщения
Вы не можете удалять свои сообщения
Вы не можете голосовать в опросах
Вы не можете прикреплять файлы к сообщениям
Вы не можете скачивать файлы

▼ Вниз