ML
     
  Уважаемый Гость!
Вы можете поддержать проект и зарегистрироваться у наших партнеров - онлайн-стратегия MyLands. При регистрации в игре Вы получите код, который сможете активировать после регистрации на pirat.ca и получить 1000 дублонов.

Ваш код:
c3360d664ceb84802c84b88ed062a5d134e2ba97
 
     

Дом-монстр / Monster House (Джил Кенан / Gil Kenan) [2006 г., фэнтези, комедия, детектив, семейный, BDRip] (Dub)

Ответить на тему
 
Автор
Сообщение

Пост 11-Дек-2011 17:52

[Q] 

Sirota

Легенда

Дом-монстр / Monster House Год выпуска: 2006
Мировая премьера: 15 июня 2006
Российская премьера: 24 августа 2006, «Каскад»
Дата выхода DVD: 14 апреля 2011, «Columbia/Sony»
Производство: США
Жанр: фэнтези, комедия, детектив, семейный
Продолжительность: 01:30:38
Перевод: профессиональный (полное дублирование) лицензия
Автор(ы) перевода: Ксения Каталымова, Борис Улитин, Валерий Соловьев, Елизавета Захарьева, Алексей Гурьев
Режиссер: Джил Кенан / Gil Kenan
В ролях: Райан Ньюман
Стив Бушеми
Митчел Муссо
Кэтрин О’Хара
Фред Уиллард
Сэм Лернер
Вуди Шульц
Йен МакКоннел
Мэгги Джилленхол
Джейсон Ли
Описание: Хорошо быть мальчишкой. Каждый день, как вся жизнь! Столько всего вокруг: девчонки, мороженое, драки, учебники, футбол. Насыщенный день, короче, получается. А вот если ты однажды обнаружил, что дом, который стоит по соседству с домом твоей семьи — вовсе не дом… А попросту говоря — монстр. Чудовище, в общем. Такие дела.
Ну вот, история эта про то, как три приятеля — ДиДжей, Чёдер и Дженни — обнаружили, что дом, находящийся неподалеку, самый настоящий монстр. Только никто им не верил. Мало ли, чего навыдумывают дети… Только зря они так. Ребята их предупреждали…
Доп. информация: сценарий Памела Петтлер, Дэн Хэрмон, Роб Шрэб
продюсер Джейсон Кларк, Джек Рэпк, Беннетт Шнейр,
оператор Пол С. Бабин, Ксавьер Перес Гробет
композитор Дуглас Пайпс
художник Эд Верро, Норман Ньюберри, Грег Папалиа,
монтаж Фабьен Роули, Адам П. Скотт
бюджет $75 000 000
сборы в США $73 661 010
сборы в мире + $66 513 996 = $140 175 006
сборы в России $1 440 876

IMDB, КиноПоиск
Источник/Качество: BDRip
Формат: AVI
Видео кодек: XviD
Аудио кодек: AC3
Видео: 720x304 (2.37:1), 23.976 fps, XviD build 64 ~1907 kbps avg, 0.36 bit/pixel
Аудио: 48 kHz, AC3 Dolby Digital, 3/2 (L,C,R,l,r) + LFE ch, ~384.00 kbps avg
Субтитры: нет
Оскар, 2007 год
Номинации (1):
Лучший анимационный фильм
Золотой глобус, 2007 год
Номинации (1):
Лучший анимационный фильм
Сатурн, 2007 год
Номинации (3):
Лучший молодой актер/актриса (Митчел Муссо)
Лучшая музыка
Лучший анимационный фильм
General
Format : AVI
Format/Info : Audio Video Interleave
File size : 1.46 GiB
Duration : 1h 30mn
Overall bit rate : 2 301 Kbps
Writing application : VirtualDubMod 1.5.10.3 (build 2550/release)
Writing library : VirtualDubMod build 2550/release
Video #0
ID : 0
Format : MPEG-4 Visual
Format profile : [email protected]
Format settings, BVOP : Yes
Format settings, QPel : No
Format settings, GMC : No warppoints
Format settings, Matrix : Custom
Codec ID : XVID
Codec ID/Hint : XviD
Duration : 1h 30mn
Bit rate : 1 908 Kbps
Width : 720 pixels
Height : 304 pixels
Display aspect ratio : 2.35:1
Frame rate : 23.976 fps
Resolution : 24 bits
Colorimetry : 4:2:0
Scan type : Progressive
Bits/(Pixel*Frame) : 0.363
Stream size : 1.21 GiB (83%)
Writing library : XviD 64
Audio #1
ID : 1
Format : AC-3
Format/Info : Audio Coding 3
Codec ID : 2000
Duration : 1h 30mn
Bit rate mode : Constant
Bit rate : 384 Kbps
Channel(s) : 6 channels
Channel positions : Front: L C R, Surround: L R, LFE
Sampling rate : 48.0 KHz
Stream size : 249 MiB (17%)
Alignment : Split accross interleaves
Interleave, duration : 42 ms (1.00 video frame)
Interleave, preload duration : 500 ms
Download / Скачать

Хотите скачать бесплатно? Зарегистрируйтесь на сайте (ссылка на регистрацию). Pirat.ca - самый быстрый торрент трекер в рунете!

Как скачивать  ·   Что такое торрент  ·   Рейтинг и ограничения

Пост 11-Дек-2011 20:57 (спустя 3 часа)

Топик был перенесен из форума Мультипликация в форум Зарубежные полнометражные мультфильмы

zyyx
 

kadrovik

Лоцман

Пост 01-Сен-2012 17:42 (спустя 8 месяцев 20 дней)

[Q] 

спасибки!!!
[Профиль]  [ЛС] 

Элизиотта

Морской Волк

329

Пост 07-Окт-2012 12:19 (спустя 1 месяц 5 дней)

[Q] 

Странноватый мультик) Что-то типа детского ужастика, прикольный такой)
[Профиль]  [ЛС] 

CHARLI2236

1098

Пост 30-Окт-2012 13:02 (спустя 23 дня)

[Q] 

спасибо

_________________
[Профиль]  [ЛС] 

Di VuLfi

Морской Волк

27

Пост 28-Янв-2013 15:41 (спустя 2 месяца 29 дней)

[Q] 


_________________
"ничто не истенно и все дозволено"
[Профиль]  [ЛС] 

post_aleks

Шкипер

689

Пост 15-Окт-2013 19:09 (спустя 8 месяцев 18 дней)

[Q] 

Спасибо! Лови бочку

_________________
Идеального мужчину можно встретить на каждом углу - сказал Бог, и создал Землю круглой...
[Профиль]  [ЛС] 

Анна 341662

Корсар

11

Пост 26-Июн-2014 18:31 (спустя 8 месяцев 10 дней)

[Q] 

Реально прикольный мультик, спасибо раздающему)
[Профиль]  [ЛС] 

Alexlogin

Гроза морей

105

Пост 04-Мар-2015 21:38 (спустя 8 месяцев 8 дней)

[Q] 

Спасибо посмотрим
[Профиль]  [ЛС] 
Показать сообщения:    
Ответить на тему

Текущее время: Сегодня 10:08

Часовой пояс: GMT + 4



Вы не можете начинать темы
Вы не можете отвечать на сообщения
Вы не можете редактировать свои сообщения
Вы не можете удалять свои сообщения
Вы не можете голосовать в опросах
Вы не можете прикреплять файлы к сообщениям
Вы не можете скачивать файлы

▼ Вниз