ML
     
  Уважаемый Гость!
Вы можете поддержать проект и зарегистрироваться у наших партнеров - онлайн-стратегия MyLands. При регистрации в игре Вы получите код, который сможете активировать после регистрации на pirat.ca и получить 1000 дублонов.

Ваш код:
ea554e7ed3eacceeae87a8b30a9de3f086c18a84
 
     

Дельго / Delgo (Марк Ф. Адлер, Джейсон Морер / Marc F. Adler, Jason Maurer) [2008 г., фэнтези, мелодрама, комедия, приключения, семейный, HDRip] (Dub)

Ответить на тему
 
Автор
Сообщение

Пост 11-Дек-2011 18:21

[Q] 

Sirota

Легенда

Дельго / Delgo Год выпуска: 2008
Мировая премьера: 17 апреля 2008
Производство: США
Жанр: фэнтези, мелодрама, комедия, приключения, семейный
Продолжительность: 01:29:23
Перевод: профессиональный (многоголосый, закадровый)
Режиссер: Марк Ф. Адлер, Джейсон Морер / Marc F. Adler, Jason Maurer
В ролях: Фредди Принц мл.
Крис Кэттэн
Дженнифер Лав Хьюитт
Энн Бэнкрофт
Вэл Килмер
Малкольм МакДауэлл
Майкл Кларк Дункан
Луис Госсет мл.
Эрик Айдл
Берт Рейнолдс
Описание: В экзотическом мире живут две расы: люди-черепахи локки и люди-бабочки норны. Локки правят землей, норны - небом, поэтому живут они раздельно, в состоянии хрупкого мира. И все шло тихо-мирно, пока у Дельго, наивного, мечтательного подростка, не возникли проблемы личного характера. Его обвинили в преступлении, которого он, как водится, не совершал. Благополучно сбежав из тюрьмы, Дельго узнаёт, что миру грозит серьёзный конфликт между локки и норнами, и теперь юному мечтателю необходимо при помощи отряда своих друзей объединить две столь различные расы против общего врага.
Доп. информация: сценарий Патрик Дж. Кауэн, Карл Дрим, Дженнифер А. Джонс,
продюсер Марк Ф. Адлер, Уенден К. Болдуин, Дженнифер А. Джонс
оператор Херб Коссовер
композитор Джеф Дзанелли
художник Марк А.В. Джексон, Янг Ли
$40 000 000
IMDB, КиноПоиск
Источник/Качество: HDRip
Формат: AVI
Видео кодек: XviD
Аудио кодек: AC3
Видео: 720x400 (1.80:1), 23.976 fps, XviD MPEG-4 ~1934 kbps avg, 0.28 bit/pixel
Аудио: 48 kHz, AC3 Dolby Digital, 3/2 (L,C,R,l,r) + LFE ch, ~384.00 kbps avg
Субтитры: нет
General
Format : AVI
Format/Info : Audio Video Interleave
File size : 1.45 GiB
Duration : 1h 29mn
Overall bit rate : 2 328 Kbps
Writing application : VirtualDubMod 1.5.10.2 (build 2542/release)
Writing library : VirtualDubMod build 2542/release
Video #0
ID : 0
Format : MPEG-4 Visual
Format profile : [email protected]
Format settings, BVOP : Yes
Format settings, QPel : No
Format settings, GMC : No warppoints
Format settings, Matrix : Default (H.263)
Muxing mode : Packed bitstream
Codec ID : XVID
Codec ID/Hint : XviD
Duration : 1h 29mn
Bit rate : 1 935 Kbps
Width : 720 pixels
Height : 400 pixels
Display aspect ratio : 16:9
Frame rate : 23.976 fps
Resolution : 24 bits
Colorimetry : 4:2:0
Scan type : Progressive
Bits/(Pixel*Frame) : 0.280
Stream size : 1.21 GiB (83%)
Writing library : XviD 58
Audio #1
ID : 1
Format : AC-3
Format/Info : Audio Coding 3
Codec ID : 2000
Duration : 1h 29mn
Bit rate mode : Constant
Bit rate : 384 Kbps
Channel(s) : 6 channels
Channel positions : Front: L C R, Surround: L R, LFE
Sampling rate : 48.0 KHz
Stream size : 246 MiB (16%)
Alignment : Split accross interleaves
Interleave, duration : 42 ms (1.00 video frame)
Interleave, preload duration : 500 ms
-
-Релиз подготовлен:

-
-
Download / Скачать

Хотите скачать бесплатно? Зарегистрируйтесь на сайте (ссылка на регистрацию). Pirat.ca - самый быстрый торрент трекер в рунете!

Как скачивать  ·   Что такое торрент  ·   Рейтинг и ограничения

Пост 11-Дек-2011 20:57 (спустя 2 часа 36 минут)

Топик был перенесен из форума Мультипликация в форум Зарубежные полнометражные мультфильмы

zyyx
 

berezeca

Корсар

Пост 14-Янв-2012 11:46 (спустя 1 месяц 2 дня)

[Q] 

большое спасибо
[Профиль]  [ЛС] 

ursus

Морской Волк

Пост 01-Фев-2012 23:18 (спустя 18 дней)

[Q] 

[Профиль]  [ЛС] 

CHARLI2236

1090

Пост 30-Окт-2012 13:01 (спустя 8 месяцев 28 дней)

[Q] 

благодарствую

_________________
[Профиль]  [ЛС] 
Показать сообщения:    
Ответить на тему

Текущее время: Сегодня 12:10

Часовой пояс: GMT + 4



Вы не можете начинать темы
Вы не можете отвечать на сообщения
Вы не можете редактировать свои сообщения
Вы не можете удалять свои сообщения
Вы не можете голосовать в опросах
Вы не можете прикреплять файлы к сообщениям
Вы не можете скачивать файлы

▼ Вниз