ML
     
  Уважаемый Гость!
Вы можете поддержать проект и зарегистрироваться у наших партнеров - онлайн-стратегия MyLands. При регистрации в игре Вы получите код, который сможете активировать после регистрации на pirat.ca и получить 1000 дублонов.

Ваш код:
193c38d0130f05c24de871678ea3ac181461757d
 
     

Тяжелый металл 2000 / Heavy Metal 2000 (Майкл Колдвей/Michael Coldewey, Мишель Лемир/Michel Lemire) [2000 г., фантастика, фэнтези, боевик, приключения, DVDRip] (MVO)

Ответить на тему
 
Автор
Сообщение

Пост 11-Дек-2011 18:46

[Q] 

Sirota

Легенда

Тяжелый металл 2000 / Heavy Metal 2000 Год выпуска: 2000
Мировая премьера: 19 апреля 2000
Производство: Германия, Канада
Жанр: фантастика, фэнтези, боевик, приключения
Продолжительность: 01:27:54
Перевод: профессиональный (многоголосый, закадровый)
Режиссер: Майкл Колдвей/Michael Coldewey, Мишель Лемир/Michel Lemire
В ролях: Майкл Айронсайд
Джули Стрэйн
Билли Айдол
Пьер Пакетт
Соня Болл
Брэйди Моффатт
Рик Джонс
Артур Холден
Алан Фоусет
Джейн Вудс
Описание: В далеком прошлом галактиками правили аракианцы, питавшие свою силу из великого источника бессмертия. Спустя века после их гибели ключ к нему нашел коварный злодей Тайлер, вознамерившийся подчинить себе вселенную.
Но на его пути к магическому источнику, спрятанному в каменных палатах на далекой планете Юроборис, встала могучая воительница ФАКК-2, которая будет преследовать Тайлера в ледяных глубинах бескрайнего космоса, обыскивая неведомые миры, населенные жестокими разбойниками, таинственными магами и невероятными созданиями, до тех пор, пока безжалостный тиран своей кровью не заплатит за гибель ее родной планеты.
Доп. информация: сценарий R. Payne Cabeen, Кевин Истмэн, Роберт Джефрион,
продюсер Мишель Лемир, Жак Петтигрю, Филипп Диаз,
оператор Бруно Филип
композитор Фредерик Тальгорн
художник Gérard Frischeteau, Мишель Герин
монтаж Бриджитт Брюлт
Сэмпл, IMDB, КиноПоиск
Источник/Качество: DVDRip
Формат: AVI
Видео кодек: XviD
Аудио кодек: MP3
Видео: 624x352 (1.77:1), 23.976 fps, XviD MPEG-4 ~1051 kbps avg, 0.20 bit/pixel
Аудио: 48 kHz, MPEG Layer 3, 2 ch, ~128.00 kbps avg
Субтитры: нет
General
Format : AVI
Format/Info : Audio Video Interleave
File size : 746 MiB
Duration : 1h 27mn
Overall bit rate : 1 186 Kbps
Writing application : VirtualDubMod 1.5.4.1 (build 2178/release)
Writing library : VirtualDubMod build 2178/release
Video #0
ID : 0
Format : MPEG-4 Visual
Format profile : [email protected]
Format settings, BVOP : Yes
Format settings, QPel : No
Format settings, GMC : No warppoints
Format settings, Matrix : Custom
Codec ID : XVID
Codec ID/Hint : XviD
Duration : 1h 27mn
Bit rate : 1 051 Kbps
Width : 624 pixels
Height : 352 pixels
Display aspect ratio : 16:9
Frame rate : 23.976 fps
Resolution : 24 bits
Colorimetry : 4:2:0
Scan type : Progressive
Bits/(Pixel*Frame) : 0.200
Stream size : 661 MiB (89%)
Writing library : XviD 64
Audio #1
ID : 1
Format : MPEG Audio
Format version : Version 1
Format profile : Layer 3
Codec ID : 55
Codec ID/Hint : MP3
Duration : 1h 27mn
Bit rate mode : Constant
Bit rate : 128 Kbps
Channel(s) : 2 channels
Sampling rate : 48.0 KHz
Resolution : 16 bits
Stream size : 80.5 MiB (11%)
Alignment : Aligned on interleaves
Interleave, duration : 83 ms (2.00 video frames)
Interleave, preload duration : 504 ms
Writing library : LAME3.98r
Encoding settings : -m j -V 4 -q 2 -lowpass 17 -b 128
-
-Релиз подготовлен:

-
-
Download / Скачать

Хотите скачать бесплатно? Зарегистрируйтесь на сайте (ссылка на регистрацию). Pirat.ca - самый быстрый торрент трекер в рунете!

Как скачивать  ·   Что такое торрент  ·   Рейтинг и ограничения

Пост 11-Дек-2011 20:57 (спустя 2 часа 10 минут)

Топик был перенесен из форума Мультипликация в форум Зарубежные полнометражные мультфильмы

zyyx
 

vmsxxx

Лоцман

Пост 13-Дек-2011 15:23 (спустя 1 день 20 часов)

[Q] 

    [Профиль]  [ЛС] 

    CHARLI2236

    1092

    Пост 30-Окт-2012 13:40 (спустя 10 месяцев 16 дней)

    [Q] 

    спасибо

    _________________
    [Профиль]  [ЛС] 

    kipelog

    Корсар

    193

    Пост 28-Ноя-2012 21:29 (спустя 29 дней)

    [Q] 

    спасибо
    [Профиль]  [ЛС] 
    Показать сообщения:    
    Ответить на тему

    Текущее время: Сегодня 18:05

    Часовой пояс: GMT + 4



    Вы не можете начинать темы
    Вы не можете отвечать на сообщения
    Вы не можете редактировать свои сообщения
    Вы не можете удалять свои сообщения
    Вы не можете голосовать в опросах
    Вы не можете прикреплять файлы к сообщениям
    Вы не можете скачивать файлы

    ▼ Вниз