ML
     
  Уважаемый Гость!
Вы можете поддержать проект и зарегистрироваться у наших партнеров - онлайн-стратегия MyLands. При регистрации в игре Вы получите код, который сможете активировать после регистрации на pirat.ca и получить 1000 дублонов.

Ваш код:
fe4e93b754a7c2b306fcfc8bc32532ea1cf59d3b
 
     

Приключения Винни Пуха / The Many Adventures of Winnie the Pooh (Джон Лоунсбери / John Lounsbery, Вольфганг Райтерман / Wolfgang Reitherman) [1977 г., Мультфильм, комедия, приключения, семейный, DVDRip] Dub

Ответить на тему
 
Автор
Сообщение

Пост 17-Сен-2012 14:44

[Q] 

sandman1973

Гроза морей

-Приключения Винни Пуха / The Many Adventures of Winnie the Pooh-- Производство: США, Walt Disney Productions
Режиссер: Джон Лоунсбери / John Lounsbery, Вольфганг Райтерман / Wolfgang Reitherman
Жанр: Мультфильм, комедия, приключения, семейный
Год выпуска: 1977 г.
Продолжительность: 01:11:03
Мировая премьера: 11 марта 1977
Перевод: Профессиональный (полное дублирование)
Роли озвучивали: Себастьян Сабот, Джуниос Мэтьюз, Барбара Ладди, Ховард Моррис, Джон Фидлер, Ральф Райт, Хэл Смит, Клинт Ховард, Брюс Рейтерман, Джон Уолмсли-Описание: Кто такой Винни Пух, знают все. Этот мультфильм производства компании Уолта Диснея основан на оригинальных иллюстрациях четырехтомного собрания о Винни Пухе художника Эрнеста Шепарда. Познакомьтесь с Винни Пухом, каким его видят англоязычные ценители и который, конечно, отличается от русской версии Бориса Заходера. Фильм стал последним мультфильмом студии Диснея о Винни-Пухе, основанным на реальном сюжете книг Милна; в дальнейшем компания выпускала фильмы, уже не связанные с оригинальными сюжетами. В «Множестве приключений» впервые появляется персонаж Суслик (гофер, зверёк, водящийся только в Америке). Он восклицает: «Конечно же, меня нет в книге!». И только в 2011 году в свет вышел новый мультфильм "Медвежонок Винни и его друзья", основанный на книге.-
Качество видео: DVDRip
Формат видео: AVI
Видео кодек: XviD
Аудио кодек: AC3
Видео: 688х528, 2392 Кбит/сек, 25,000 кадров/сек
Аудио: 192 Кбит/сек, 2 канала, 48,0 КГц
Общее
Полное имя : E:\Загрузки\Prikluchenija.Vinni.Puha.1977.XviD.DVDRip.avi
Формат : AVI
Формат/Информация : Audio Video Interleave
Размер файла : 1,29 Гбайт
Продолжительность : 1 ч. 11 м.
Общий поток : 2593 Кбит/сек
Программа кодирования : VirtualDubModRus 1.5.10.2 (build 2542/release)
Библиотека кодирования : VirtualDubMod build 2542/release
Видео
Идентификатор : 0
Формат : MPEG-4 Visual
Профиль формата : Advanced [email protected]
Параметр BVOP формата : 2
Параметр QPel формата : Нет
Параметр GMC формата : Без точки перехода
Параметр матрицы формата : Default (MPEG)
Режим смешивания : Сжатый битовый поток
Идентификатор кодека : XVID
Идентификатор кодека/Подсказка : XviD
Продолжительность : 1 ч. 11 м.
Битрейт : 2392 Кбит/сек
Ширина : 688 пикселей
Высота : 528 пикселей
Соотношение сторон : 4:3
Частота кадров : 25,000 кадров/сек
Цветовое пространство : YUV
Субдискретизация насыщенности : 4:2:0
Битовая глубина : 8 бит
Тип развёртки : Прогрессивная
Метод сжатия : С потерями
Бит/(Пиксели*Кадры) : 0.263
Размер потока : 1,19 Гбайт (92%)
Библиотека кодирования : XviD 63
Аудио
Идентификатор : 1
Формат : AC-3
Формат/Информация : Audio Coding 3
Расширение режима : CM (complete main)
Параметр Endianness формата : Big
Идентификатор кодека : 2000
Продолжительность : 1 ч. 10 м.
Вид битрейта : Постоянный
Битрейт : 192 Кбит/сек
Каналы : 2 канала
Расположение каналов : Front: L R
Частота : 48,0 КГц
Битовая глубина : 16 бит
Метод сжатия : С потерями
Размер потока : 97,4 Мбайт (7%)
Выравнивание : Разделение по промежуткам
Продолжительность промежутка : 40 мс. (1,00 видеокадр)
Время предзагрузки промежутка : 500 мс.
Станислав Концевич, Георгий Корольчук, Мария Соснякова, Борис Шварцман, Андрей Матвеев
Download / Скачать

Хотите скачать бесплатно? Зарегистрируйтесь на сайте (ссылка на регистрацию). Pirat.ca - самый быстрый торрент трекер в рунете!

Как скачивать  ·   Что такое торрент  ·   Рейтинг и ограничения

Пост 17-Сен-2012 15:05 (спустя 21 минута)

Топик был перенесен из форума Мультфильмы (Трюм) в форум Зарубежные полнометражные мультфильмы

ara1205
 

erchine

44805

Пост 21-Сен-2012 14:52 (спустя 4 дня)

[Q] 

Спасибо за пополнение коллекции Дисней / The Walt Disney Company
[Профиль]  [ЛС] 

agafonkin.62

Морской Волк

Пост 24-Окт-2012 11:12 (спустя 1 месяц 2 дня)

[Q] 

Спасибо
[Профиль]  [ЛС] 

sandman1973 ®

Гроза морей

2129

Пост 25-Дек-2012 20:55 (спустя 2 месяца 1 день)

[Q] 


Как в децтво, блин, окунулся....

_________________

[Профиль]  [ЛС] 
Показать сообщения:    
Ответить на тему

Текущее время: Сегодня 14:30

Часовой пояс: GMT + 4



Вы не можете начинать темы
Вы не можете отвечать на сообщения
Вы не можете редактировать свои сообщения
Вы не можете удалять свои сообщения
Вы не можете голосовать в опросах
Вы не можете прикреплять файлы к сообщениям
Вы не можете скачивать файлы

▼ Вниз