ML
     
  Уважаемый Гость!
Вы можете поддержать проект и зарегистрироваться у наших партнеров - онлайн-стратегия MyLands. При регистрации в игре Вы получите код, который сможете активировать после регистрации на pirat.ca и получить 1000 дублонов.

Ваш код:
e6008d9811a0b6a1393c3dc51ecd7bc35637bc21
 
     

Обитель зла: Проклятие / Biohazard: Damnation (Макото Камия / Makoto Kamiya) [2012 г., Мультфильм, Ужасы, Фантастика, Боевик, Триллер, HDRip] MVO

Страницы :  1, 2  След.

Ответить на тему
 
Автор
Сообщение

Пост 19-Сен-2012 23:28

[Q] 

kiryandr

Легенда

-Обитель зла: Проклятие / Biohazard: Damnation-- Производство: Япония | Digital Frontier, Sony Pictures Entertainment, Capcom Company
Режиссер: Макото Камия / Makoto Kamiya
Жанр: Мультфильм, Ужасы, Фантастика, Боевик, Триллер
Год выпуска: 2012 г.
Продолжительность: 01:40:01
Мировая премьера: 24 сентября 2012
Перевод: Профессиональный (многоголосый, закадровый)
Роли озвучивали: Робин Сакс, Кортни Тейлор, Кэролин Лоуренс, Мэттью Мерсер, Уэнди Ли, Дейв Уиттенберг, Салли Саффиоти, Вэл Тассо, Элисон Корт-Описание: Продолжение популярной компьютерной анимации «Обитель зла: Вырождение». Леон Кеннеди отправляется в Восточную Европу на борьбу с монстрами — порождениями корпорации Амбрела. Больше монстров, больше пушек, больше экшена.-Сэмпл IMDB КиноПоиск
Качество видео: HDRip
Формат видео: AVI
Видео кодек: XviD
Аудио кодек: AC3
Видео: 720 x 400, 1692 Кбит/сек, 23,976 кадра/сек, 0.245
Аудио: AC3 5.1, 384 Кбит/сек, 48,0 КГц
Cубтитры: отсутствуют
Общее
Полное имя : Obitel.zla.Proklyatie.2012.P.HDRip.avi
Формат : AVI
Формат/Информация : Audio Video Interleave
Размер файла : 1,46 Гбайт
Продолжительность : 1 ч. 40 м.
Общий поток : 2085 Кбит/сек
Название фильма : Obitel.zla.Proklyatie.2012.P.HDRip
Жанр : Animation/Action/ Horror/Sci-F
Программа кодирования : VirtualDubMod 1.5.10.2 (build 2540/release)
Видео
Идентификатор : 0
Формат : MPEG-4 Visual
Профиль формата : Advanced [email protected]
Параметр BVOP формата : 2
Параметр QPel формата : Нет
Параметр GMC формата : Без точки перехода
Параметр матрицы формата : Выборочная
Идентификатор кодека : XVID
Идентификатор кодека/Подсказка : XviD
Продолжительность : 1 ч. 40 м.
Битрейт : 1692 Кбит/сек
Ширина : 720 пикселей
Высота : 400 пикселей
Соотношение сторон : 16:9
Частота кадров : 23,976 кадра/сек
Цветовое пространство : YUV
Субдискретизация насыщенности : 4:2:0
Битовая глубина : 8 бит
Тип развёртки : Прогрессивная
Метод сжатия : С потерями
Бит/(Пиксели*Кадры) : 0.245
Размер потока : 1,18 Гбайт (81%)
Библиотека кодирования : XviD 1.2.1 (UTC 2008-12-04)
Аудио
Идентификатор : 1
Формат : AC-3
Формат/Информация : Audio Coding 3
Расширение режима : CM (complete main)
Параметр Endianness формата : Big
Идентификатор кодека : 2000
Продолжительность : 1 ч. 40 м.
Вид битрейта : Постоянный
Битрейт : 384 Кбит/сек
Каналы : 6 каналов
Расположение каналов : Front: L C R, Side: L R, LFE
Частота : 48,0 КГц
Битовая глубина : 16 бит
Метод сжатия : С потерями
Размер потока : 275 Мбайт (18%)
Выравнивание : Разделение по промежуткам
Продолжительность промежутка : 42 мс. (1,00 видеокадр)
Время предзагрузки промежутка : 500 мс.
Download / Скачать

Хотите скачать бесплатно? Зарегистрируйтесь на сайте (ссылка на регистрацию). Pirat.ca - самый быстрый торрент трекер в рунете!

Как скачивать  ·   Что такое торрент  ·   Рейтинг и ограничения

Пост 19-Сен-2012 23:47 (спустя 19 минут)

Топик был перенесен из форума Мультфильмы (Трюм) в форум Новинки (HD|DVD|BD|TV|SAT|PDTV| - Rips)

erchine
 

dimonpa

Гроза морей

Пост 20-Сен-2012 07:26 (спустя 7 часов)

[Q] 

[Профиль]  [ЛС] 

Spark

Лоцман

Пост 20-Сен-2012 21:38 (спустя 14 часов)

[Q] 


Поддайте скорости!!!!:)
[Профиль]  [ЛС] 

Totos

Шкипер

Пост 20-Сен-2012 22:04 (спустя 26 минут)

[Q] 

120 скачиваний и в 6 раз меньше спасибок)))
[Профиль]  [ЛС] 

demanix

Штурман

Пост 20-Сен-2012 23:55 (спустя 1 час 50 минут)

[Q] 

[Профиль]  [ЛС] 

V-E-N-O-M

Штурман

Пост 21-Сен-2012 04:05 (спустя 4 часа)

[Q] 

не разу не смотрел, но
[Профиль]  [ЛС] 

Jek@

Легенда

Пост 21-Сен-2012 08:17 (спустя 4 часа)

[Q] 


.
[Профиль]  [ЛС] 

civic_85

Корсар

Пост 21-Сен-2012 10:33 (спустя 2 часа 15 минут)

[Q] 

Это вырезки из игр или полноценный мульт?

_________________
[Профиль]  [ЛС] 

SHIKO

Шкипер

Пост 21-Сен-2012 11:45 (спустя 1 час 11 минут)

[Q] 

civic_85, Полноценный. В титрах вырезки из 6 части игры.
[Профиль]  [ЛС] 

civic_85

Корсар

Пост 21-Сен-2012 12:23 (спустя 37 минут)

[Q] 


_________________
[Профиль]  [ЛС] 

Falcon12

Морской Волк

Пост 21-Сен-2012 17:51 (спустя 5 часов)

[Q] 

[Профиль]  [ЛС] 

xams

Лоцман

Пост 21-Сен-2012 22:26 (спустя 4 часа)

[Q] 

Хороший мульт. Сенкс
[Профиль]  [ЛС] 

Goniba1

Шкипер

Пост 22-Сен-2012 00:25 (спустя 1 час 58 минут)

[Q] 

пасотрим
[Профиль]  [ЛС] 

vasi

Корсар

Пост 22-Сен-2012 02:14 (спустя 1 час 49 минут)

[Q] 

[Профиль]  [ЛС] 

bull271174

Флибустьер

Пост 22-Сен-2012 22:00 (спустя 19 часов)

[Q] 

Один раз посмотреть!
[Профиль]  [ЛС] 

rus733

Штурман

Пост 23-Сен-2012 03:57 (спустя 5 часов)

[Q] 

[Профиль]  [ЛС] 

Demon198455

Шкипер

Пост 23-Сен-2012 10:59 (спустя 7 часов)

[Q] 

[Профиль]  [ЛС] 

Ospan

Корсар

Пост 23-Сен-2012 11:22 (спустя 23 минуты)

[Q] 

[Профиль]  [ЛС] 

Cap Flint

Морской Волк

194

Пост 23-Сен-2012 18:20 (спустя 6 часов)

[Q] 


_________________
[Профиль]  [ЛС] 

Voland57

Корсар

Пост 23-Сен-2012 20:29 (спустя 2 часа 8 минут)

[Q] 

[Профиль]  [ЛС] 

Ghosta

Лоцман

Пост 23-Сен-2012 21:03 (спустя 33 минуты)

[Q] 

[Профиль]  [ЛС] 

anonymoys

Гроза морей

901

Пост 24-Сен-2012 07:00 (спустя 9 часов)

[Q] 

[Профиль]  [ЛС] 

Vladislav020691

Штурман

Пост 24-Сен-2012 13:02 (спустя 6 часов)

[Q] 

[Профиль]  [ЛС] 

muhinmax

Лоцман

Пост 24-Сен-2012 21:06 (спустя 8 часов)

[Q] 

В общем посмотреть разок можно для разнобразия)))). Я вообще перепутал, думал это фильм 2012 года "Обитель зла 5: Возмездие".
мультиков)
[Профиль]  [ЛС] 

Gordon 008

Корсар

539

Пост 24-Сен-2012 22:06 (спустя 59 минут)

[Q] 

Клюква ещё та.
[Профиль]  [ЛС] 

KRE100

Шкипер

Пост 24-Сен-2012 23:38 (спустя 1 час 32 минуты)

[Q] 

[Профиль]  [ЛС] 

shachoff

Шкипер

Пост 25-Сен-2012 20:55 (спустя 21 час)

[Q] 

Всё здорово! Класс!!
[Профиль]  [ЛС] 

Dimson75

Шкипер

Пост 25-Сен-2012 22:06 (спустя 1 час 11 минут)

[Q] 

Отличный мульт. Сразу вспомнил первую часть на Sony PS. Все равно, что прохождение игры посмотрел

_________________
Intel I5/ Asus P8P67/ 8Gb/GTX 760 2Gb/ OCZ Vertex3 240Gb/ 1000w
[Профиль]  [ЛС] 

maxvel911

Морской Волк

Пост 27-Сен-2012 01:17 (спустя 1 день 3 часа)

[Q] 

Посмотрел сие творение, честно говоря как то не впечатлил, как на меня скучноват и глупо снят... досмотрел со второго раза, хотя я большой фанат зомбятены.... в общем 3.
[Профиль]  [ЛС] 
Показать сообщения:    
Ответить на тему

Текущее время: Сегодня 02:01

Часовой пояс: GMT + 4



Вы не можете начинать темы
Вы не можете отвечать на сообщения
Вы не можете редактировать свои сообщения
Вы не можете удалять свои сообщения
Вы не можете голосовать в опросах
Вы не можете прикреплять файлы к сообщениям
Вы не можете скачивать файлы

▼ Вниз