ML
     
  Уважаемый Гость!
Вы можете поддержать проект и зарегистрироваться у наших партнеров - онлайн-стратегия MyLands. При регистрации в игре Вы получите код, который сможете активировать после регистрации на pirat.ca и получить 1000 дублонов.

Ваш код:
db0e0ad91548759ffeb9bb88bed405e1a4b3c165
 
     

Ледниковый период 4: Континентальный дрейф / Ice Age: Continental Drift (Стив Мартино, Майк Трумейер / Steve Martino, Mike Thurmeier) [2012 г., мультфильм, комедия, приключения, семейный, BDRip] Dub [Лицензия]

Страницы :  1, 2, 3, 4  След.

Ответить на тему
 
Автор
Сообщение

Пост 01-Окт-2012 01:16

[Q] 

kiryandr

Легенда

- -- Производство: США / Blue Sky Studios
Режиссер: Стив Мартино, Майк Трумейер / Steve Martino, Mike Thurmeier
Жанр: мультфильм, комедия, приключения, семейный
Год выпуска: 2012 г.
Продолжительность: 01:28:41
Мировая премьера: 26 июня 2012
Российская премьера: 12 июля 2012, «Двадцатый Век Фокс СНГ»
Перевод: Профессиональный (полное дублирование) [Лицензия]-Роли озвучивали: Рэй Романо, Джон Легуизамо, Куин Латифа, Дэнис Лири, Джош Пек, Азиз Ансари, Джой Бехар, Кристофер Кэмпбелл, Ален Шаба, Эстер Дин-Описание: После приключений под землей прошло семь лет. Случился дрейф континентов. Главные герои мультфильма, отделённые от стада, вынуждены использовать айсберг в качестве плота. Они пересекают океан и попадают в неизвестные им ранее земли с экзотическими животными и пиратами, враждебно настроенными к ним. Скрэту удаётся получить свой жёлудь, но он перемещается в новые для него земли.-Сэмпл IMDB КиноПоиск
Качество видео: BDRip
Формат видео: AVI
Видео кодек: XviD
Аудио кодек: AC3
Видео: 720x304, 1906 Кбит/сек, 23,976 кадра/сек
Аудио: 48 kHz, AC3 Dolby Digital, 3/2 (L,C,R,l,r) + LFE ch, ~448.00 kbps avg
Cубтитры: Отсутствуют
Общее
Полное имя : Lednikovyj.period.4.Kontinentalnyj.drejf.2012.RUS.BDRip.avi
Формат : AVI
Формат/Информация : Audio Video Interleave
Размер файла : 1,45 Гбайт
Продолжительность : 1 ч. 27 м.
Общий поток : 2363 Кбит/сек
Название фильма : Ледниковый период 4: Континентальный дрейф / Ice Age: Continental Drift (2012) BDRip
Программа кодирования : VirtualDubMod 1.5.10.2 (build 2542/release)
Примечание : 25.10.2012
Видео
Идентификатор : 0
Формат : MPEG-4 Visual
Профиль формата : Advanced [email protected]
Параметр BVOP формата : 1
Параметр QPel формата : Нет
Параметр GMC формата : Без точки перехода
Параметр матрицы формата : Выборочная
Идентификатор кодека : XVID
Идентификатор кодека/Подсказка : XviD
Продолжительность : 1 ч. 27 м.
Битрейт : 1906 Кбит/сек
Ширина : 720 пикселей
Высота : 304 пикселя
Соотношение сторон : 2,35:1
Частота кадров : 23,976 кадра/сек
Цветовое пространство : YUV
Субдискретизация насыщенности : 4:2:0
Битовая глубина : 8 бит
Тип развёртки : Прогрессивная
Метод сжатия : С потерями
Бит/(Пиксели*Кадры) : 0.363
Размер потока : 1,17 Гбайт (81%)
Библиотека кодирования : XviD 65
Аудио
Идентификатор : 1
Формат : AC-3
Формат/Информация : Audio Coding 3
Расширение режима : CM (complete main)
Параметр Endianness формата : Big
Идентификатор кодека : 2000
Продолжительность : 1 ч. 27 м.
Вид битрейта : Постоянный
Битрейт : 448 Кбит/сек
Каналы : 6 каналов
Расположение каналов : Front: L C R, Side: L R, LFE
Частота : 48,0 КГц
Битовая глубина : 16 бит
Метод сжатия : С потерями
Размер потока : 281 Мбайт (19%)
Выравнивание : Разделение по промежуткам
Продолжительность промежутка : 42 мс. (1,00 видеокадр)
Время предзагрузки промежутка : 500 мс.
25.10.2012г. Раздача обновлена!!!
Вышла лицензия!
Download / Скачать

Хотите скачать бесплатно? Зарегистрируйтесь на сайте (ссылка на регистрацию). Pirat.ca - самый быстрый торрент трекер в рунете!

Как скачивать  ·   Что такое торрент  ·   Рейтинг и ограничения



Последний раз редактировалось: kiryandr (2012-10-25 11:32), всего редактировалось 3 раз(а)

Пост 01-Окт-2012 01:40 (спустя 23 минуты)

Топик был перенесен из форума Мультфильмы (Трюм) в форум Новинки (HD|DVD|BD|TV|SAT|PDTV| - Rips)

ara1205
 

SandroNek

Морской Волк

Пост 01-Окт-2012 05:45 (спустя 4 часа)

[Q] 

Благодарю bs
[Профиль]  [ЛС] 

cruzzel

Корсар

Пост 01-Окт-2012 06:04 (спустя 19 минут)

[Q] 


_________________
NEWSLOL.NET
[Профиль]  [ЛС] 

[email protected]

Морской Волк

Пост 01-Окт-2012 07:44 (спустя 1 час 40 минут)

[Q] 

[Профиль]  [ЛС] 

dimonpa

Гроза морей

Пост 01-Окт-2012 07:51 (спустя 6 минут)

[Q] 

[Профиль]  [ЛС] 

NINJA_MASTER

2075

Пост 01-Окт-2012 09:17 (спустя 1 час 26 минут)

[Q] 


_________________
Подпись отключена за нарушение правил форума
[Профиль]  [ЛС] 

asash

Морской Волк

Пост 01-Окт-2012 10:16 (спустя 59 минут)

[Q] 

Спасибо большое, хороший мульт. Эта серия с каждым разом все лучше и лучше, что так редко в наше время.
[Профиль]  [ЛС] 

infiniti-r

Корсар

Пост 01-Окт-2012 10:19 (спустя 3 минуты)

[Q] 

Спасибо!
[Профиль]  [ЛС] 

-B1ack-

1884

Пост 01-Окт-2012 10:42 (спустя 22 минуты)

[Q] 

kiryandr
спасибо,но подожду качество по выше,ром в трюме
az

_________________
[Профиль]  [ЛС] 

maaximkaa

Корсар

Пост 01-Окт-2012 10:54 (спустя 12 минут)

[Q] 

[Профиль]  [ЛС] 

gnom_ik

Корсар

Пост 01-Окт-2012 11:34 (спустя 39 минут)

[Q] 

[Профиль]  [ЛС] 

gastello liding

Штурман

Пост 01-Окт-2012 12:01 (спустя 26 минут)

[Q] 

[Профиль]  [ЛС] 

serj-77756

Штурман

Пост 01-Окт-2012 12:06 (спустя 4 минуты)

[Q] 

[Профиль]  [ЛС] 

gr71silver

Корсар

Пост 01-Окт-2012 13:12 (спустя 1 час 6 минут)

[Q] 

Спасибо!
[Профиль]  [ЛС] 

BaUruk88

Штурман

Пост 01-Окт-2012 15:27 (спустя 2 часа 14 минут)

[Q] 

[Профиль]  [ЛС] 

allexxxv

Морской Волк

Пост 01-Окт-2012 16:56 (спустя 1 час 29 минут)

[Q] 

[Профиль]  [ЛС] 

sode no shirayuki003

Морской Волк

Пост 01-Окт-2012 18:08 (спустя 1 час 11 минут)

[Q] 


_________________
Пираты были отчаянные люди, известные подвигами, которым не хватало честности, чтобы стать героическими.
[Профиль]  [ЛС] 

yuriiss

Штурман

Пост 01-Окт-2012 18:13 (спустя 5 минут)

[Q] 

[Профиль]  [ЛС] 

wonderhell

Корсар

95

Пост 01-Окт-2012 19:54 (спустя 1 час 40 минут)

[Q] 


_________________
[Профиль]  [ЛС] 

veter13

Корсар

Пост 01-Окт-2012 20:30 (спустя 36 минут)

[Q] 

[Профиль]  [ЛС] 

De Puta Madre

Морской Волк

Пост 01-Окт-2012 21:01 (спустя 30 минут)

[Q] 

[Профиль]  [ЛС] 

glamour03

Корсар

70

Пост 01-Окт-2012 21:10 (спустя 9 минут)

[Q] 


_________________
[Профиль]  [ЛС] 

SCORPION.

Морской Волк

Пост 01-Окт-2012 21:13 (спустя 3 минуты)

[Q] 

[Профиль]  [ЛС] 

Lipsik

Лоцман

Пост 01-Окт-2012 21:48 (спустя 34 минуты)

[Q] 

[Профиль]  [ЛС] 

Urlhtml

Корсар

Пост 01-Окт-2012 22:01 (спустя 12 минут)

[Q] 

[Профиль]  [ЛС] 

Goniba1

Шкипер

Пост 01-Окт-2012 22:32 (спустя 31 минута)

[Q] 

[Профиль]  [ЛС] 

Aleks44

Гроза морей

Пост 01-Окт-2012 23:00 (спустя 27 минут)

[Q] 

Пираты сыграли главную роль и захватывающий роль в мультике отличный юмор не хуже остальных частей захватывающий сюжет, честно я ждал в мультике появление пиратов они не разочаровали, очень хороший мульт
[Профиль]  [ЛС] 

shestnev

Штурман

Пост 02-Окт-2012 01:05 (спустя 2 часа 5 минут)

[Q] 

[Профиль]  [ЛС] 

yasha122

Морской Волк

Пост 02-Окт-2012 01:42 (спустя 37 минут)

[Q] 

[Профиль]  [ЛС] 
Показать сообщения:    
Ответить на тему

Текущее время: Сегодня 08:06

Часовой пояс: GMT + 4



Вы не можете начинать темы
Вы не можете отвечать на сообщения
Вы не можете редактировать свои сообщения
Вы не можете удалять свои сообщения
Вы не можете голосовать в опросах
Вы не можете прикреплять файлы к сообщениям
Вы не можете скачивать файлы

▼ Вниз