ML
     
  Уважаемый Гость!
Вы можете поддержать проект и зарегистрироваться у наших партнеров - онлайн-стратегия MyLands. При регистрации в игре Вы получите код, который сможете активировать после регистрации на pirat.ca и получить 1000 дублонов.

Ваш код:
73640f24f8a0f579e128ea7346fd2db2b1009143
 
     

Мадагаскар 3 / Madagascar 3: Europe's Most Wanted (Эрик Дарнелл / Eric Darnell,Том МакГрат / Tom McGrath,Конрад Вернон / Conrad Vernon) [2012 г., Мультфильм, HDRip-AVC] Dub Sub Eng [Лицензия]

Ответить на тему
 
Автор
Сообщение

Пост 12-Окт-2012 18:25

[Q] 

AGKRus36

-Мадагаскар 3 / Madagascar 3: Europe's Most Wanted-- Производство: США / DreamWorks Animation, Pacific Data Images (PDI)
Режиссер: Эрик Дарнелл / Eric Darnell,Том МакГрат / Tom McGrath,Конрад Вернон / Conrad Vernon
Жанр: Мультфильм
Год выпуска: 2012 г.
Продолжительность: 01:33:25
Мировая премьера: 18 мая 2012
Российская премьера: 7 июня 2012, «Централ Партнершип»
Перевод: Профессиональный (полное дублирование) [Лицензия]
Роли озвучивали: Бен Стиллер, Крис Рок, Дэвид Швиммер, Джада Пинкетт Смит, Саша Барон Коэн, Седрик «Развлекатель», Энди Рихтер, Фрэнсис МакДорманд, Брайан Крэнстон, Мартин Шорт-Описание: Лев Алекс, зебра Марти, жираф Мелман и бегемот Глория присоединяются к бродячему цирку, в надежде вернуться в Нью-Йорк.-Сэмпл IMDB КиноПоиск
Качество видео: HDRip-AVC
Формат видео: MKV
Видео кодек: H.264
Аудио кодек: AC3
Видео: H.264, 1024x576 (16:9), 23,976 кадр/сек, 1855 Кбит/сек, 0.131 bit/pixel
Аудио: 48 kHz, AC3 Dolby Digital, 3/2 (L,C,R,l,r) + LFE ch, ~448.00 kbps avg
Cубтитры: английские
D:\Фильмы\Мадагаскар 3\Madagascar.3.2012.D.HDRip-AVC.mkv
General
Complete name : D:\Фильмы\Мадагаскар 3\Madagascar.3.2012.D.HDRip-AVC.mkv
Format : Matroska
File size : 1.50 GiB
Duration : 1h 33mn
Overall bit rate : 2 305 Kbps
Movie name : -=POTROKS=-
Encoded date : UTC 2012-10-11 15:30:20
Writing application : mkvmerge v5.7.0 ('The Whirlwind') built on Jul 8 2012 20:08:51
Writing library : libebml v1.2.3 + libmatroska v1.3.0
Video #1
ID : 1
Format : AVC
Format/Info : Advanced Video Codec
Format profile : [email protected]
Format settings, CABAC : Yes
Format settings, ReFrames : 12 frames
Muxing mode : Container [email protected]
Codec ID : V_MPEG4/ISO/AVC
Duration : 1h 33mn
Bit rate : 1 811 Kbps
Nominal bit rate : 1 855 Kbps
Width : 1 024 pixels
Height : 576 pixels
Display aspect ratio : 16:9
Frame rate mode : Variable
Frame rate : 23.976 fps
Resolution : 8 bits
Colorimetry : 4:2:0
Scan type : Progressive
Bits/(Pixel*Frame) : 0.128
Stream size : 1.18 GiB (78%)
Title : Мадагаскар 3.2012.D.HDRip.x264.potroks
Writing library : x264 core 128 r2216M 198a7ea
Encoding settings : cabac=1 / ref=13 / deblock=1:-1:-1 / analyse=0x3:0x133 / me=umh / subme=11 / psy=1 / psy_rd=1.00:0.00 / mixed_ref=1 / me_range=32 / chroma_me=1 / trellis=2 / 8x8dct=1 / cqm=0 / deadzone=21,11 / fast_pskip=0 / chroma_qp_offset=-2 / threads=4 / lookahead_threads=1 / sliced_threads=0 / nr=0 / decimate=1 / interlaced=0 / bluray_compat=0 / constrained_intra=0 / bframes=14 / b_pyramid=1 / b_adapt=2 / b_bias=0 / direct=3 / weightb=1 / open_gop=0 / weightp=2 / keyint=240 / keyint_min=23 / scenecut=40 / intra_refresh=0 / rc_lookahead=100 / rc=2pass / mbtree=1 / bitrate=1855 / ratetol=1.0 / qcomp=0.70 / qpmin=10 / qpmax=51 / qpstep=4 / cplxblur=20.0 / qblur=0.5 / vbv_maxrate=20000 / vbv_bufsize=25000 / nal_hrd=none / ip_ratio=1.35 / aq=1:1.00
Audio #2
ID : 2
Format : AC-3
Format/Info : Audio Coding 3
Codec ID : A_AC3
Duration : 1h 33mn
Bit rate mode : Constant
Bit rate : 448 Kbps
Channel(s) : 6 channels
Channel positions : Front: L C R, Surround: L R, LFE
Sampling rate : 48.0 KHz
Stream size : 299 MiB (19%)
Title : DD.5.1 ch., 448 kbps
Language : Russian
Text #3
ID : 3
Format : UTF-8
Codec ID : S_TEXT/UTF8
Codec ID/Info : UTF-8 Plain Text
Text #4
ID : 4
Format : UTF-8
Codec ID : S_TEXT/UTF8
Codec ID/Info : UTF-8 Plain Text
Download / Скачать

Хотите скачать бесплатно? Зарегистрируйтесь на сайте (ссылка на регистрацию). Pirat.ca - самый быстрый торрент трекер в рунете!

Как скачивать  ·   Что такое торрент  ·   Рейтинг и ограничения

Пост 12-Окт-2012 18:47 (спустя 21 минута)

Топик был перенесен из форума Мультфильмы (Трюм) в форум Новинки (HD|DVD|BD|TV|SAT|PDTV| - Rips)

erchine
 

cruzzel

Корсар

Пост 12-Окт-2012 19:28 (спустя 1 час 2 минуты)

[Q] 


_________________
NEWSLOL.NET
[Профиль]  [ЛС] 

wonderhell

Корсар

95

Пост 12-Окт-2012 19:40 (спустя 11 минут)

[Q] 


_________________
[Профиль]  [ЛС] 

AGKRus36 ®

37905

Пост 12-Окт-2012 19:57 (спустя 17 минут)

[Q] 


_________________
Мои раздачи
[Профиль]  [ЛС] 

KIKER007

Штурман

Пост 12-Окт-2012 23:16 (спустя 3 часа)

[Q] 


_________________
[Профиль]  [ЛС] 

DAEDMAN

Флибустьер

Пост 13-Окт-2012 11:01 (спустя 11 часов)

[Q] 

[Профиль]  [ЛС] 

cssergey

Корсар

Пост 13-Окт-2012 12:18 (спустя 1 час 17 минут)

[Q] 

[Профиль]  [ЛС] 

AlexM

Корсар

Пост 13-Окт-2012 15:49 (спустя 3 часа)

[Q] 

Давно ждал
[Профиль]  [ЛС] 

allexxxv

Морской Волк

Пост 21-Окт-2012 10:26 (спустя 7 дней)

[Q] 

[Профиль]  [ЛС] 

lidi

Шкипер

Пост 06-Ноя-2012 18:31 (спустя 16 дней)

[Q] 

[Профиль]  [ЛС] 

rotex56

Штурман

18

Пост 07-Ноя-2012 15:19 (спустя 20 часов)

[Q] 

[Профиль]  [ЛС] 

dr.archie80

Морской Волк

Пост 07-Ноя-2012 17:32 (спустя 2 часа 13 минут)

[Q] 

[Профиль]  [ЛС] 

Alex-dix

Флибустьер

Пост 18-Ноя-2012 19:51 (спустя 11 дней)

[Q] 

[Профиль]  [ЛС] 

reliz82

Шкипер

49

Пост 31-Дек-2012 21:40 (спустя 1 месяц 13 дней)

[Q] 

Хороший мульт
[Профиль]  [ЛС] 

vyacheslav

Корсар

Пост 12-Янв-2013 13:50 (спустя 11 дней)

[Q] 


По прежнему ржака
[Профиль]  [ЛС] 

Илья.ru

Морской Волк

Пост 14-Янв-2013 15:50 (спустя 2 дня 1 час)

[Q] 

[Профиль]  [ЛС] 

serj-77756

Штурман

Пост 13-Июн-2013 14:46 (спустя 4 месяца 29 дней)

[Q] 

[Профиль]  [ЛС] 

Вут

Морской Волк

72

Пост 19-Июн-2013 14:08 (спустя 5 дней)

[Q] 

[Профиль]  [ЛС] 

black kat

Лоцман

Пост 08-Июл-2013 13:02 (спустя 18 дней)

[Q] 

Спасибо!!!!!!!
[Профиль]  [ЛС] 
Показать сообщения:    
Ответить на тему

Текущее время: Сегодня 22:33

Часовой пояс: GMT + 4



Вы не можете начинать темы
Вы не можете отвечать на сообщения
Вы не можете редактировать свои сообщения
Вы не можете удалять свои сообщения
Вы не можете голосовать в опросах
Вы не можете прикреплять файлы к сообщениям
Вы не можете скачивать файлы

▼ Вниз