ML
     
  Уважаемый Гость!
Вы можете поддержать проект и зарегистрироваться у наших партнеров - онлайн-стратегия MyLands. При регистрации в игре Вы получите код, который сможете активировать после регистрации на pirat.ca и получить 1000 дублонов.

Ваш код:
0fcd44bd35319f69313aa6e53b31c51cbff1c942
 
     

Том и Джерри: Робин Гуд и мышь-весельчак / Tom And Jerry: Robin Hood And His Merry Mouse (Спайк Брандт, Тони Червоне / Spike Brandt, Tony Cervone) [2012 г., мультфильм, DVDRip] Dub+ Original (Eng) [Лицензия]

Ответить на тему
 
Автор
Сообщение

Пост 01-Ноя-2012 22:11

[Q] 

AGKRus36

-Том и Джерри: Робин Гуд и мышь-весельчак / Tom And Jerry: Robin Hood And His Merry Mouse-- Производство: США, Warner Home Video
Режиссер: Спайк Брандт, Тони Червоне / Spike Brandt, Tony Cervone
Жанр: мультфильм
Год выпуска: 2012 г.
Продолжительность: 00:55:17
Мировая премьера: 28 сентября 2012
Перевод: Профессиональный (полное дублирование) (Лицензия)
Оригинальный аудиопоток: английский
Роли озвучивали: Роб Полсен, Тодд Стэшвик, Лорейн Ньюмен-Описание: Он грабил богатых, раздавал награбленное бедным, а теперь ему отчаянно нужна помощь Тома и Джерри! Знаменитый разбойник Робин Гуд попал в лапы злого шерифа Ноттингемского, а возлюбленной Робина, деве Мэриан, грозит серьезная опасность со стороны алчного принца Джона. Сумеют ли заклятые враги Том и Джерри на время забыть о своей вражде, чтобы спасти положение? В новом полнометражном мультипликационном фильме любимая многими средневековая сказка обрела новое прочтение. Динамичный сюжет, опасные трюки, залихватские песни, и, конечно, всеобщие любимцы, воитель Томас и маленький разбойник Джерри. Один за всех и все за одного в самой бесшабашной и удивительной истории из всех, что когда-либо происходили в Шервудском лесу-Сэмпл IMDB КиноПоиск
Качество видео: DVDRip
Формат видео: AVI
Видео кодек: XviD
Аудио кодек: AC3
Видео: 720x400, 2071 kbps, 25.000 fps
Аудио 1: AC3, 192 kbps, (2 ch), 48.0 KHz Русский
Аудио 2: AC3, 384 kbps, (6 ch), 48.0 KHz Английский
Cубтитры: отсутствуют
D:\Фильмы\Том и Джерри Робин Гуд и мышь-весельчак\Tom And Jerry Robin Hood And His Merry Mouse.avi
General
Complete name : D:\Фильмы\Том и Джерри Робин Гуд и мышь-весельчак\Tom And Jerry Robin Hood And His Merry Mouse.avi
Format : AVI
Format/Info : Audio Video Interleave
File size : 1.03 GiB
Duration : 55mn 17s
Overall bit rate : 2 662 Kbps
Writing application : VirtualDubMod 1.5.10.2 (build 2540/release)
Writing library : VirtualDubMod build 2540/release
Video #0
ID : 0
Format : MPEG-4 Visual
Format profile : Advanced [email protected]
Format settings, BVOP : Yes
Format settings, QPel : No
Format settings, GMC : No warppoints
Format settings, Matrix : Default (H.263)
Muxing mode : Packed bitstream
Codec ID : XVID
Codec ID/Hint : XviD
Duration : 55mn 17s
Bit rate : 2 071 Kbps
Width : 720 pixels
Height : 400 pixels
Display aspect ratio : 16:9
Frame rate : 25.000 fps
Resolution : 8 bits
Colorimetry : 4:2:0
Scan type : Progressive
Bits/(Pixel*Frame) : 0.288
Stream size : 819 MiB (78%)
Writing library : XviD 1.2.1 (UTC 2008-12-04)
Audio #1
ID : 1
Format : AC-3
Format/Info : Audio Coding 3
Format profile : Dolby Digital
Codec ID : 2000
Duration : 55mn 17s
Bit rate mode : Constant
Bit rate : 192 Kbps
Channel(s) : 2 channels
Channel positions : L R
Sampling rate : 48.0 KHz
Stream size : 75.9 MiB (7%)
Alignment : Split accross interleaves
Interleave, duration : 40 ms (1.00 video frame)
Interleave, preload duration : 500 ms
Audio #2
ID : 2
Format : AC-3
Format/Info : Audio Coding 3
Codec ID : 2000
Duration : 55mn 17s
Bit rate mode : Constant
Bit rate : 384 Kbps
Channel(s) : 6 channels
Channel positions : Front: L C R, Surround: L R, LFE
Sampling rate : 48.0 KHz
Stream size : 152 MiB (14%)
Alignment : Split accross interleaves
Interleave, duration : 40 ms (1.00 video frame)
Interleave, preload duration : 500 ms
Download / Скачать

Хотите скачать бесплатно? Зарегистрируйтесь на сайте (ссылка на регистрацию). Pirat.ca - самый быстрый торрент трекер в рунете!

Как скачивать  ·   Что такое торрент  ·   Рейтинг и ограничения



Последний раз редактировалось: AGKRus36 (2012-11-01 23:44), всего редактировалось 2 раз(а)

AGKRus36 ®

37905

Пост 01-Ноя-2012 22:17 (спустя 6 минут)

[Q] 

Дочка смотрела мультик еле оторвал от телевизора

_________________
Мои раздачи
[Профиль]  [ЛС] 

Пост 01-Ноя-2012 23:56 (спустя 1 час 38 минут)

Топик был перенесен из форума Мультфильмы (Трюм) в форум Новинки (HD|DVD|BD|TV|SAT|PDTV| - Rips)

erchine
 

Eliskura

Штурман

Пост 02-Ноя-2012 04:36 (спустя 6 часов)

[Q] 


_________________
Малыш, все твои понты стоят дешевле моих колготок.
[Профиль]  [ЛС] 

anonymoys

Гроза морей

901

Пост 02-Ноя-2012 07:07 (спустя 2 часа 30 минут)

[Q] 

[Профиль]  [ЛС] 

Jek@

Легенда

Пост 02-Ноя-2012 08:43 (спустя 1 час 35 минут)

[Q] 

[Профиль]  [ЛС] 

bull271174

Флибустьер

Пост 02-Ноя-2012 09:32 (спустя 49 минут)

[Q] 

[Профиль]  [ЛС] 

xxxLOGICxxx

Корсар

Пост 02-Ноя-2012 10:12 (спустя 39 минут)

[Q] 

[Профиль]  [ЛС] 

dimonpa

Гроза морей

Пост 02-Ноя-2012 10:35 (спустя 23 минуты)

[Q] 

[Профиль]  [ЛС] 

infiniti-r

Корсар

Пост 02-Ноя-2012 12:12 (спустя 1 час 37 минут)

[Q] 

Вот радость детям!!! СПАСИБО огромное!!!
[Профиль]  [ЛС] 

watsonix

Флибустьер

Пост 02-Ноя-2012 13:35 (спустя 1 час 22 минуты)

[Q] 

[Профиль]  [ЛС] 

ДенисДенис

Штурман

Пост 02-Ноя-2012 15:47 (спустя 2 часа 12 минут)

[Q] 

Ностальгия))) Себя бы от телевизора оторвать-то
[Профиль]  [ЛС] 

Lyha

Штурман

Пост 02-Ноя-2012 17:34 (спустя 1 час 47 минут)

[Q] 

Качество и разрешение ay . Можно посмотреть на большом экране

_________________
Мужество, честь и отвага - три признака алкогольного опьянения
[Профиль]  [ЛС] 

sta1ler

Корсар

3

Пост 02-Ноя-2012 19:11 (спустя 1 час 36 минут)

[Q] 


_________________
[Профиль]  [ЛС] 

pokermike299

Корсар

Пост 03-Ноя-2012 03:09 (спустя 7 часов)

[Q] 

гляну:) люблю с детства этих зверушек:))
[Профиль]  [ЛС] 

allabama

Лоцман

Пост 03-Ноя-2012 12:34 (спустя 9 часов)

[Q] 

[Профиль]  [ЛС] 

Aleks44

Гроза морей

Пост 03-Ноя-2012 13:39 (спустя 1 час 5 минут)

[Q] 

Том и Джери в своем стиле смешные шутки отличный юмор, вообщем красочный смешной интересный мульт
[Профиль]  [ЛС] 

n1k14

Морской Волк

Пост 03-Ноя-2012 15:12 (спустя 1 час 32 минуты)

[Q] 

[Профиль]  [ЛС] 

Nikitosina228

Морской Волк

Пост 03-Ноя-2012 15:43 (спустя 31 минута)

[Q] 


[Профиль]  [ЛС] 

veter510

Флибустьер

Пост 04-Ноя-2012 13:16 (спустя 21 час)

[Q] 

Внучке весьма понравилось!
[Профиль]  [ЛС] 

slavix

Корсар

Пост 06-Ноя-2012 16:43 (спустя 2 дня 3 часа)

[Q] 

ребёнку понравилось,
[Профиль]  [ЛС] 

АняRoxy

Штурман

Пост 02-Дек-2012 18:40 (спустя 26 дней)

[Q] 

[Профиль]  [ЛС] 

Skam782712

Шкипер

Пост 04-Дек-2012 01:24 (спустя 1 день 6 часов)

[Q] 

Спасибо, покажу сыну.
[Профиль]  [ЛС] 

LEO32

Морской Волк

Пост 11-Дек-2012 18:33 (спустя 7 дней)

[Q] 

[Профиль]  [ЛС] 

s.tema99

Корсар

94

Пост 16-Янв-2013 19:31 (спустя 1 месяц 5 дней)

[Q] 

[Профиль]  [ЛС] 

Nutrilon

Юнга

Пост 17-Мар-2013 21:37 (спустя 2 месяца 1 день)

[Q] 


[Профиль]  [ЛС] 

Deniska7777

Шкипер

Пост 21-Апр-2013 22:25 (спустя 1 месяц 4 дня)

[Q] 

[Профиль]  [ЛС] 

дмитрий1987@mail.ru

Морской Волк

Пост 05-Июн-2014 09:39 (спустя 1 год 1 месяц)

[Q] 

Раздающему респект! Спасибо!!! спасибо
[Профиль]  [ЛС] 
Показать сообщения:    
Ответить на тему

Текущее время: Сегодня 02:11

Часовой пояс: GMT + 4



Вы не можете начинать темы
Вы не можете отвечать на сообщения
Вы не можете редактировать свои сообщения
Вы не можете удалять свои сообщения
Вы не можете голосовать в опросах
Вы не можете прикреплять файлы к сообщениям
Вы не можете скачивать файлы

▼ Вниз