ML
     
  Уважаемый Гость!
Вы можете поддержать проект и зарегистрироваться у наших партнеров - онлайн-стратегия MyLands. При регистрации в игре Вы получите код, который сможете активировать после регистрации на pirat.ca и получить 1000 дублонов.

Ваш код:
47bfc18b89c74e4ae0d974e9b6943639e2bff08e
 
     

Звездная битва: Сквозь пространство и время / Thru the Moebius Strip (Гленн Чайка / Glenn Chaika) [2005 г., фантастика, боевик, приключения, семейный, HDRip] (Dub)

Ответить на тему
 
Автор
Сообщение

Пост 14-Дек-2011 21:23

[Q] 

Sirota

Легенда

Звездная битва: Сквозь пространство и время / Thru the Moebius Strip Год выпуска: 2005
Мировая премьера: 30 декабря 2005
Российская премьера: 23 августа 2007, «Top Film Distribution»
Дата выхода DVD: июня 2010, «Новый Диск»
Производство: США, Китай
Жанр: фантастика, боевик, приключения, семейный
Продолжительность: 01:29:37
Перевод: профессиональный (полное дублирование)
Режиссер: Гленн Чайка / Glenn Chaika
В ролях: Джонатан Тейлор Томас
Крис Маркетт
Марк Хэмилл
Майкл Дорн
Андреа Леон
Пери Гилпин
Келли Мартин
Дэниэл Дэвис
Ди Брэдли Бейкер
Джон ДеМита
Описание: Физик и изобретатель Саймон Вейр создал портал, позволяющий перемещаться во времени и пространстве. Во время эксперимента он попадает в ловушку и оказывается на далекой изолированной планете.
Семь лет спустя, его 14-летний сын, Джек Вейр, находчивый и изобретательный паренек, так и не смирившийся с тем, что его отец пропал без вести, находит портал и попадает на планету Рафикка, ровно на 27, 2 миллиона световых лет назад. Там Джек узнает, что его отец — узник королевства, управляемого гигантскими инопланетянами, верящими в волшебство и живущим по рыцарским законам средневековья…
Доп. информация: сценарий Джим Кокс, Пол Герц, Жан Жиро
продюсер Фрэнк Фостер, Дэвид Киршнер, Энтони Нео,
композитор Натан Ланье, Оливье Либотри
художник Жан Жиро, Фред Клайн
монтаж Боб Бендер, Луис Фриман-Фокс
IMDB, КиноПоиск
Источник/Качество: HDRip
Формат: AVI
Видео кодек: XviD
Аудио кодек: AC3
Видео: 704x400 (1.76:1), 24.000 fps, XviD build 63 ~1869 kbps avg, 0.28 bit/pixel
Аудио: 48 kHz, AC3 Dolby Digital, 3/2 (L,C,R,l,r) + LFE ch, ~448.00 kbps avg
Субтитры: нет
General
Format : AVI
Format/Info : Audio Video Interleave
File size : 1.46 GiB
Duration : 1h 29mn
Overall bit rate : 2 327 Kbps
Writing application : VirtualDubMod 1.5.10.3 (build 2550/release)
Writing library : VirtualDubMod build 2550/release
Video #0
ID : 0
Format : MPEG-4 Visual
Format profile : [email protected]
Format settings, BVOP : Yes
Format settings, QPel : No
Format settings, GMC : No warppoints
Format settings, Matrix : Custom
Codec ID : XVID
Codec ID/Hint : XviD
Duration : 1h 29mn
Bit rate : 1 869 Kbps
Width : 704 pixels
Height : 400 pixels
Display aspect ratio : 16:9
Frame rate : 24.000 fps
Resolution : 24 bits
Colorimetry : 4:2:0
Scan type : Progressive
Bits/(Pixel*Frame) : 0.277
Stream size : 1.17 GiB (80%)
Writing library : XviD 63
Audio #1
ID : 1
Format : AC-3
Format/Info : Audio Coding 3
Codec ID : 2000
Duration : 1h 29mn
Bit rate mode : Constant
Bit rate : 448 Kbps
Channel(s) : 6 channels
Channel positions : Front: L C R, Surround: L R, LFE
Sampling rate : 48.0 KHz
Stream size : 287 MiB (19%)
Alignment : Split accross interleaves
Interleave, duration : 42 ms (1.00 video frame)
Interleave, preload duration : 500 ms
-
-Релиз подготовлен:

-
-
Download / Скачать

Хотите скачать бесплатно? Зарегистрируйтесь на сайте (ссылка на регистрацию). Pirat.ca - самый быстрый торрент трекер в рунете!

Как скачивать  ·   Что такое торрент  ·   Рейтинг и ограничения

Пост 14-Дек-2011 21:32 (спустя 8 минут)

Топик был перенесен из форума Мультипликация в форум Зарубежные полнометражные мультфильмы

zyyx
 

slavik002vg

Лоцман

Пост 18-Дек-2011 14:35 (спустя 3 дня)

[Q] 

дайте раздачу звёздная битва
[Профиль]  [ЛС] 

Vlad__treker

Морской Волк

184

Пост 22-Дек-2011 23:56 (спустя 4 дня)

[Q] 

Sirota, спасибо большое! -нажал

_________________
...:::Pirat.ca:::...
..:::The Best:::...
[Профиль]  [ЛС] 

ursus

Морской Волк

Пост 01-Фев-2012 23:19 (спустя 1 месяц 9 дней)

[Q] 

[Профиль]  [ЛС] 

CHARLI2236

1097

Пост 30-Окт-2012 13:04 (спустя 8 месяцев 28 дней)

[Q] 

спасибочки

_________________
[Профиль]  [ЛС] 
Показать сообщения:    
Ответить на тему

Текущее время: Сегодня 07:01

Часовой пояс: GMT + 4



Вы не можете начинать темы
Вы не можете отвечать на сообщения
Вы не можете редактировать свои сообщения
Вы не можете удалять свои сообщения
Вы не можете голосовать в опросах
Вы не можете прикреплять файлы к сообщениям
Вы не можете скачивать файлы

▼ Вниз