ML
     
  Уважаемый Гость!
Вы можете поддержать проект и зарегистрироваться у наших партнеров - онлайн-стратегия MyLands. При регистрации в игре Вы получите код, который сможете активировать после регистрации на pirat.ca и получить 1000 дублонов.

Ваш код:
0af2e2107bc9b5dd5ac2c09f9fc25e1a77c43887
 
     

Тайна Аббатства Келлс / The Secret of Kells (Томм Мур / Tomm Moore, Нора Твоми / Nora Twomey) [2009 г., фэнтези, приключения, семейный, HDRip] (MVO)

Ответить на тему
 
Автор
Сообщение

Пост 14-Дек-2011 22:01

[Q] 

Sirota

Легенда

Тайна Аббатства Келлс / The Secret of Kells Год выпуска: 2009
Мировая премьера: 30 января 2009
Российская премьера: 13 января 2011, «RUSCICO»
Дата выхода DVD: 24 марта 2011, «Новый Диск»
Производство: Франция, Ирландия, Бельгия
Жанр: фэнтези, приключения, семейный
Продолжительность: 01:18:44
Перевод: профессиональный (многоголосый, закадровый)
Режиссер: Томм Мур / Tomm Moore, Нора Твоми / Nora Twomey
В ролях: Эван МакГуайр
Кристен Муни
Брендан Глисон
Мик Лэлли
Лиам Хурикан
Пол Тайлак
Майкл МакГрат
Пол Янг
Нора Твоми
Marie Thorhauge
Описание: На дворе 9 век. В ирландской глубинке спряталось старинное аббатство Келлз, руководит им авторитарный Настоятель. Воспитанный им племянник-сирота по имени Брендан — мальчик славный и способный. Ему 12 лет, и он вместе с другими монахами старательно трудится над укреплением стен аббатства для защиты от набегов викингов.
Новая полная приключений жизнь ждет Брендана с прибытием Брата Эйдана, знаменитого мастера-иллюстратора и хранителя необычной незаконченной книги с иллюстрациями. Брат Эйдан принимает мальчика под свое крыло и посвящает его в искусство иллюстрации, пробуждая невероятный интерес и удивительный талант.
Доп. информация: сценарий Фабрис Циолковски, Томм Мур
продюсер Дидье Бруннер, Томм Мур, Вивиан Ванфлетерен,
композитор Бруно Куле
художник Росс Стюарт
монтаж Фабьен Альварез-Жиро
IMDB, КиноПоиск
Источник/Качество: HDRip
Формат: AVI
Видео кодек: XviD
Аудио кодек: AC3
Видео: 720x400 (1.80:1), 23.976 fps, XviD build 58 ~2086 kbps avg, 0.30 bit/pixel
Аудио: Русский 48 kHz, AC3 Dolby Digital, 2/0 (L,R) ch, ~192.00 kbps avg
Аудио #2: Украинский 48 kHz, AC3 Dolby Digital, 2/0 (L,R) ch, ~192.00 kbps avg
Субтитры: нет
Оскар, 2010 год
Номинации (1):
Лучший анимационный фильм
Европейская киноакадемия, 2009 год
Номинации (1):
Лучший анимационный фильм
General
Format : AVI
Format/Info : Audio Video Interleave
File size : 1.37 GiB
Duration : 1h 18mn
Overall bit rate : 2 485 Kbps
Writing application : VirtualDubMod 1.5.10.3 (build 2550/release)
Writing library : VirtualDubMod build 2550/release
Video #0
ID : 0
Format : MPEG-4 Visual
Format profile : [email protected]
Format settings, BVOP : Yes
Format settings, QPel : No
Format settings, GMC : No warppoints
Format settings, Matrix : Default (MPEG)
Codec ID : XVID
Codec ID/Hint : XviD
Duration : 1h 18mn
Bit rate : 2 087 Kbps
Width : 720 pixels
Height : 400 pixels
Display aspect ratio : 16:9
Frame rate : 23.976 fps
Resolution : 24 bits
Colorimetry : 4:2:0
Scan type : Progressive
Bits/(Pixel*Frame) : 0.302
Stream size : 1.15 GiB (84%)
Writing library : XviD 58
Audio #1
ID : 1
Format : AC-3
Format/Info : Audio Coding 3
Codec ID : 2000
Duration : 1h 18mn
Bit rate mode : Constant
Bit rate : 192 Kbps
Channel(s) : 2 channels
Channel positions : L R
Sampling rate : 48.0 KHz
Stream size : 108 MiB (8%)
Alignment : Split accross interleaves
Interleave, duration : 42 ms (1.00 video frame)
Interleave, preload duration : 500 ms
Audio #2
ID : 2
Format : AC-3
Format/Info : Audio Coding 3
Codec ID : 2000
Duration : 1h 18mn
Bit rate mode : Constant
Bit rate : 192 Kbps
Channel(s) : 2 channels
Channel positions : L R
Sampling rate : 48.0 KHz
Stream size : 108 MiB (8%)
Alignment : Split accross interleaves
Interleave, duration : 42 ms (1.00 video frame)
Interleave, preload duration : 500 ms
-
-Релиз подготовлен:

-
-
Download / Скачать

Хотите скачать бесплатно? Зарегистрируйтесь на сайте (ссылка на регистрацию). Pirat.ca - самый быстрый торрент трекер в рунете!

Как скачивать  ·   Что такое торрент  ·   Рейтинг и ограничения

Пост 15-Дек-2011 00:01 (спустя 2 часа)

Топик был перенесен из форума Мультипликация в форум Зарубежные полнометражные мультфильмы

zyyx
 

Alexe10

Гроза морей

36

Пост 15-Дек-2011 07:36 (спустя 9 часов)

[Q] 

Мультфильм своеобразный! Графика немного схематична, что ни коим образом не умоляет художественной ценности!
Музыка для любителей ирландских мотивов, замечательная!!!
В целом очень хорошее впечатление!
[Профиль]  [ЛС] 

Noiret

Лоцман

Пост 08-Фев-2012 17:00 (спустя 1 месяц 24 дня)

[Q] 

На фоне множества клише западной анимации - это глоток свежего воздуха, чистого вдохновения ).
Великолепно =).

_________________
"Человек, чье сердце полно молчания, совсем не таков, как тот, чье сердце исполнено тишины". Милорад Павич. «Пейзаж, нарисованный чаем», 1988 год.
[Профиль]  [ЛС] 

CHARLI2236

1097

Пост 30-Окт-2012 13:35 (спустя 8 месяцев 21 день)

[Q] 

спс

_________________
[Профиль]  [ЛС] 
Показать сообщения:    
Ответить на тему

Текущее время: Сегодня 00:04

Часовой пояс: GMT + 4



Вы не можете начинать темы
Вы не можете отвечать на сообщения
Вы не можете редактировать свои сообщения
Вы не можете удалять свои сообщения
Вы не можете голосовать в опросах
Вы не можете прикреплять файлы к сообщениям
Вы не можете скачивать файлы

▼ Вниз