ML
     
  Уважаемый Гость!
Вы можете поддержать проект и зарегистрироваться у наших партнеров - онлайн-стратегия MyLands. При регистрации в игре Вы получите код, который сможете активировать после регистрации на pirat.ca и получить 1000 дублонов.

Ваш код:
8dcb839cf1b47e56d6dc42d17f26b3e4822e9aee
 
     

Атлантида: Возвращение Майло / Atlantis: Milo's Return (Тоби Шелтон, Виктор А. Кук / Victor Cook, Toby Shelton) [2003 г., боевик, комедия, приключения, семейный, DVDRip] (MVO)

Ответить на тему
 
Автор
Сообщение

Пост 14-Дек-2011 22:42

[Q] 

Sirota

Легенда

Атлантида: Возвращение Майло / Atlantis: Milo's Return Год выпуска: 2003
Мировая премьера: 23 апреля 2003
Дата выхода DVD: 12 октября 2010, «Уолт Дисней Компани СНГ»
Производство: США , Walt Disney Pictures
Жанр: боевик, комедия, приключения, семейный
Продолжительность: 01:17:09
Перевод: профессиональный (многоголосый, закадровый)
Автор(ы) перевода: Ксения Кладько, Юрий Лазарев
Режиссер: Тоби Шелтон, Виктор А. Кук / Victor Cook, Toby Shelton
В ролях: Джеймс Арнольд Тейлор
Кри Саммер
Джон Махони
Жаклин Обрадорс
Дон Новелло
Кори Бертон
Фил Моррис
Флоренс Стэнли
Фрэнк Уэлкер
Стив Барр
Описание: Мийло, Кида и команда смелых исследователей Атлантиды возвращаются в новых приключениях, полных ожидания и действия. В течение первой экспедиции Майло и Кида открыли подводное царство, а так же спасли его и всех его обитателей. Теперь опасность подкралась с поверхности воды и отважным героям придется покинуть Атлантиду…
Доп. информация: сценарий Томас Харт, Генри Гилрой, Кевин Хоуппс,
продюсер Тэд Стоунс
композитор Дон Харпер
монтаж Джон Ройер
Первая часть здесь: Атлантида: Затерянный мир / Atlantis: The Lost Empire (Гари Труздейл, Кирк Уайз / Gary Trousdale, Kirk Wise) [2001 г., боевик, фэнтези, приключения, семейный, DVDRip] (Dub)
IMDB, КиноПоиск
Источник/Качество: DVDRip
Формат: AVI
Видео кодек: XviD
Аудио кодек: AC3
Видео: 720x432 (1.67:1), 25 fps, XviD Final 1.0.1 (build 35) ~2081 kbps avg, 0.27 bit/pixel
Аудио: 48 kHz, AC3 Dolby Digital, 3/2 (L,C,R,l,r) + LFE ch, ~448.00 kbps avg
Субтитры: нет
General
Format : AVI
Format/Info : Audio Video Interleave
File size : 1.37 GiB
Duration : 1h 17mn
Overall bit rate : 2 537 Kbps
Writing application : VirtualDubMod 1.5.4.1 (build 2178/release)
Writing library : VirtualDubMod build 2178/release
Video #0
ID : 0
Format : MPEG-4 Visual
Format profile : [email protected]
Format settings, BVOP : No
Format settings, QPel : No
Format settings, GMC : No warppoints
Format settings, Matrix : Default (H.263)
Codec ID : XVID
Codec ID/Hint : XviD
Duration : 1h 17mn
Bit rate : 2 082 Kbps
Width : 720 pixels
Height : 432 pixels
Display aspect ratio : 1.667
Frame rate : 25.000 fps
Resolution : 24 bits
Colorimetry : 4:2:0
Scan type : Progressive
Bits/(Pixel*Frame) : 0.268
Stream size : 1.12 GiB (82%)
Writing library : XviD 1.0.1 (UTC 2004-06-05)
Audio #1
ID : 1
Format : AC-3
Format/Info : Audio Coding 3
Codec ID : 2000
Duration : 1h 17mn
Bit rate mode : Constant
Bit rate : 448 Kbps
Channel(s) : 6 channels
Channel positions : Front: L C R, Surround: L R, LFE
Sampling rate : 48.0 KHz
Stream size : 247 MiB (18%)
Alignment : Split accross interleaves
Interleave, duration : 80 ms (2.00 video frames)
Interleave, preload duration : 500 ms
Language : Russian
-
-Релиз подготовлен:

-
-
Download / Скачать

Хотите скачать бесплатно? Зарегистрируйтесь на сайте (ссылка на регистрацию). Pirat.ca - самый быстрый торрент трекер в рунете!

Как скачивать  ·   Что такое торрент  ·   Рейтинг и ограничения

Пост 15-Дек-2011 00:01 (спустя 1 час 19 минут)

Топик был перенесен из форума Мультипликация в форум Зарубежные полнометражные мультфильмы

zyyx
 

OlegSh

Морской Волк

Пост 26-Дек-2011 15:02 (спустя 11 дней)

[Q] 

люблю этот мульт, посмотрю еще раз
[Профиль]  [ЛС] 

CHARLI2236

1098

Пост 30-Окт-2012 12:48 (спустя 10 месяцев 3 дня)

[Q] 

благодарствую

_________________
[Профиль]  [ЛС] 

intelegent

Юнга

Пост 08-Дек-2013 09:15 (спустя 1 год 1 месяц)

[Q] 

Красивый мультяшка!
[Профиль]  [ЛС] 

ScorpioKZ

Шкипер

Пост 17-Фев-2014 10:07 (спустя 2 месяца 9 дней)

[Q] 

забираю в коллекцию
Всем качать!!! Автору респект!!!
[Профиль]  [ЛС] 

GnomKa

Шкипер

Пост 23-Фев-2014 23:30 (спустя 6 дней)

[Q] 

соскучилась я по мультфильмам :)

_________________
Человек человеку волк, а зомби зомби зомби
[Профиль]  [ЛС] 
Показать сообщения:    
Ответить на тему

Текущее время: Сегодня 04:14

Часовой пояс: GMT + 4



Вы не можете начинать темы
Вы не можете отвечать на сообщения
Вы не можете редактировать свои сообщения
Вы не можете удалять свои сообщения
Вы не можете голосовать в опросах
Вы не можете прикреплять файлы к сообщениям
Вы не можете скачивать файлы

▼ Вниз