ML
     
  Уважаемый Гость!
Вы можете поддержать проект и зарегистрироваться у наших партнеров - онлайн-стратегия MyLands. При регистрации в игре Вы получите код, который сможете активировать после регистрации на pirat.ca и получить 1000 дублонов.

Ваш код:
fe4e93b754a7c2b306fcfc8bc32532ea1cf59d3b
 
     

Секретная служба Санта-Клауса / Arthur Christmas (Сара Смит / Sarah Smith, Бэрри Кук / Barry Cook) [2011 г., мультфильм, драма, комедия, семейный, BDRip] Dub

Ответить на тему
 
Автор
Сообщение

Пост 18-Ноя-2012 21:37

[Q] 

ara1205

-Секретная служба Санта-Клауса / Arthur Christmas-- Производство: Великобритания, США
Год выпуска: 2011 г.
Жанр: мультфильм, драма, комедия, семейный
Продолжительность: 01:37:32
Дата выхода DVD: 27 ноября 2012
Перевод: Профессиональный (полное дублирование) [Лицензия]-Режиссер: Сара Смит / Sarah Smith, Бэрри Кук / Barry Cook-Описание: Фильм приоткрывает завесу тайны над тем, каким образом Санта-Клаусу удается развезти подарки всем детям на Земле всего за одну ночь.-- --Качество видео: BDRip
Формат видео: AVI
Видео кодек: XviD
Аудио кодек: MP3
Видео: 688x368, 23.976 fps, 934 kbps avg, 0.154 bit/pixel
Аудио: 48 kHz, 2 ch, 128 kbps
Cубтитры: отсутствуют-
Общее
Полное имя : C:\Users\Ромик\Pictures\Посмотреть\Секретная служба Санта-Клауса\Sekretnaya.Slujba.Santa.Klausa.2011.BDRip.700Mb.[pirat.ca].avi
Формат : AVI
Формат/Информация : Audio Video Interleave
Размер файла : 747 Мбайт
Продолжительность : 1 ч. 37 м.
Общий поток : 1071 Кбит/сек
Название фильма : Sekretnaya.Slujba.Santa.Klausa.2011.BDRip.700Mb.[pirat.ca]
Программа кодирования : VirtualDubMod 1.5.10.2 (build 2540/release)
Правообладатель : pirat.ca
Видео
Идентификатор : 0
Формат : MPEG-4 Visual
Профиль формата : Advanced [email protected]
Параметр BVOP формата : 2
Параметр QPel формата : Нет
Параметр GMC формата : Без точки перехода
Параметр матрицы формата : Default (MPEG)
Идентификатор кодека : XVID
Идентификатор кодека/Подсказка : XviD
Продолжительность : 1 ч. 37 м.
Битрейт : 934 Кбит/сек
Ширина : 688 пикселей
Высота : 368 пикселей
Соотношение сторон : 1,85:1
Частота кадров : 23,976 кадра/сек
Цветовое пространство : YUV
Субдискретизация насыщенности : 4:2:0
Битовая глубина : 8 бит
Тип развёртки : Прогрессивная
Метод сжатия : С потерями
Бит/(Пиксели*Кадры) : 0.154
Размер потока : 651 Мбайт (87%)
Библиотека кодирования : XviD 1.2.0.dev47 (UTC 2006-11-01)
Аудио
Идентификатор : 1
Формат : MPEG Audio
Версия формата : Version 1
Профиль формата : Layer 3
Идентификатор кодека : 55
Идентификатор кодека/Подсказка : MP3
Продолжительность : 1 ч. 37 м.
Вид битрейта : Постоянный
Битрейт : 128 Кбит/сек
Каналы : 2 канала
Частота : 48,0 КГц
Метод сжатия : С потерями
Размер потока : 89,3 Мбайт (12%)
Выравнивание : Соединение по промежуткам
Продолжительность промежутка : 42 мс. (1,00 видеокадр)
Время предзагрузки промежутка : 504 мс.
Библиотека кодирования : LAME3.97
Настройки программы : -m s -V 4 -q 2 -lowpass 17 -b 128
-
-
-
Download / Скачать

Хотите скачать бесплатно? Зарегистрируйтесь на сайте (ссылка на регистрацию). Pirat.ca - самый быстрый торрент трекер в рунете!

Как скачивать  ·   Что такое торрент  ·   Рейтинг и ограничения

yulya230784

Морской Волк

927

Пост 19-Ноя-2012 10:16 (спустя 12 часов)

[Q] 

[Профиль]  [ЛС] 

Вут

Морской Волк

72

Пост 12-Авг-2013 11:02 (спустя 8 месяцев 23 дня)

[Q] 

Спасибо! Отличный мульт! Всем качать!!! Лови бочку
[Профиль]  [ЛС] 
Показать сообщения:    
Ответить на тему

Текущее время: Сегодня 14:31

Часовой пояс: GMT + 4



Вы не можете начинать темы
Вы не можете отвечать на сообщения
Вы не можете редактировать свои сообщения
Вы не можете удалять свои сообщения
Вы не можете голосовать в опросах
Вы не можете прикреплять файлы к сообщениям
Вы не можете скачивать файлы

▼ Вниз