ML
     
  Уважаемый Гость!
Вы можете поддержать проект и зарегистрироваться у наших партнеров - онлайн-стратегия MyLands. При регистрации в игре Вы получите код, который сможете активировать после регистрации на pirat.ca и получить 1000 дублонов.

Ваш код:
47bfc18b89c74e4ae0d974e9b6943639e2bff08e
 
     

Пушистые против Зубастых / The Outback (Кюнг Хо Ли / Kyung Ho Lee) [2012 г., мультфильм, приключения, семейный, DVDRip] Dub [Лицензия]

Ответить на тему
 
Автор
Сообщение

Пост 26-Ноя-2012 14:32

[Q] 

AGKRus36

-Пушистые против Зубастых / The Outback-- Производство: Корея Южная, США
Режиссер: Кюнг Хо Ли / Kyung Ho Lee
Жанр: мультфильм, приключения, семейный
Год выпуска: 2012 г.
Продолжительность: 01:22:02
Мировая премьера: 12 января 2012
Российская премьера: 25 октября 2012, «Каскад»
Релиз на DVD: 27 ноября 2012, «Флагман-Трейд»
Релиз на Blu-Ray: 27 ноября 2012, «Флагман-Трейд»
Перевод: Профессиональный (полное дублирование) (Лицензия)
Роли озвучивали: Чарли Бьюли, Алан Камминг, Тим Карри, Крис Эджерли, Эрик Лопез, Норм МакДональд, Брэт МакКензи, Нолан Норт, Филип Проктор, Дженни Пулос-Описание: Нелегко живется на свете если ты белый, а все остальные — серые. Так и белый коала Джонни страдает от своей особенности. А если ты особенный — то тебе, ясное дело, прямая дорога в цирк! Но любовь публики недолговечна, особенно, если кроме цвета шерсти, тебе нечем похвастаться. Джонни мечтает стать крутым суперегероем и ему представится такой шанс! Для этого всего лишь нужно разогнать стаю кровожадных псов, опрокинуть горы, перебраться через пропасть, перехитрить гигантских змей, приручить тасманского дьявола и победить гигантского крокодила! И что же в награду? Ну, конечно, любовь прекрасной дамы!-Сэмпл IMDB КиноПоиск
Качество видео: DVDRip
Формат видео: AVI
Видео кодек: XviD
Аудио кодек: AC3
Видео: 624x336 (1.86:1), 25 fps, XviD build 50 ~1058 kbps avg, 0.20 bit/pixel
Аудио: 48 kHz, MPEG Layer 3, 2 ch, ~128.00 kbps avg
Cубтитры: отсутствуют
D:\Фильмы\Пушистые против Зубастых\Pushistye.protiv.Zubastyh.2012.D.DVDRip.avi
General
Complete name : D:\Фильмы\Пушистые против Зубастых\Pushistye.protiv.Zubastyh.2012.D.DVDRip.avi
Format : AVI
Format/Info : Audio Video Interleave
File size : 702 MiB
Duration : 1h 22mn
Overall bit rate : 1 196 Kbps
Writing application : VirtualDubMod 1.5.10.2 (build 2542/release)
Writing library : VirtualDubMod build 2542/release
Video #0
ID : 0
Format : MPEG-4 Visual
Format profile : Advanced [email protected]
Format settings, BVOP : Yes
Format settings, QPel : No
Format settings, GMC : No warppoints
Format settings, Matrix : Default (MPEG)
Codec ID : XVID
Codec ID/Hint : XviD
Duration : 1h 22mn
Bit rate : 1 058 Kbps
Width : 624 pixels
Height : 336 pixels
Display aspect ratio : 1.857
Frame rate : 25.000 fps
Resolution : 8 bits
Colorimetry : 4:2:0
Scan type : Progressive
Bits/(Pixel*Frame) : 0.202
Stream size : 621 MiB (88%)
Writing library : XviD 1.2.1 (UTC 2008-12-04)
Audio #1
ID : 1
Format : MPEG Audio
Format version : Version 1
Format profile : Layer 3
Format_Settings_Mode : Joint stereo
Format_Settings_ModeExtension : MS Stereo
Codec ID : 55
Codec ID/Hint : MP3
Duration : 1h 22mn
Bit rate mode : Constant
Bit rate : 128 Kbps
Channel(s) : 2 channels
Sampling rate : 48.0 KHz
Stream size : 75.1 MiB (11%)
Alignment : Aligned on interleaves
Interleave, duration : 40 ms (1.00 video frame)
Interleave, preload duration : 504 ms
Writing library : LAME3.99r
Download / Скачать

Хотите скачать бесплатно? Зарегистрируйтесь на сайте (ссылка на регистрацию). Pirat.ca - самый быстрый торрент трекер в рунете!

Как скачивать  ·   Что такое торрент  ·   Рейтинг и ограничения



Последний раз редактировалось: AGKRus36 (2012-11-26 15:08), всего редактировалось 3 раз(а)

kiryandr

Легенда

63138

Пост 26-Ноя-2012 15:00 (спустя 27 минут)

[Q] 

Спасибо!!! az

_________________


Последний раз редактировалось: kiryandr (2012-11-26 15:24), всего редактировалось 1 раз
[Профиль]  [ЛС] 

Пост 26-Ноя-2012 15:27 (спустя 26 минут)

Топик был перенесен из форума Мультфильмы (Трюм) в форум Новинки (HD|DVD|BD|TV|SAT|PDTV| - Rips)

ara1205
 

AGKRus36 ®

37906

Пост 26-Ноя-2012 15:27 (спустя 27 минут)

[Q] 


_________________
Мои раздачи
[Профиль]  [ЛС] 

John Doe.ua

Шкипер

Пост 26-Ноя-2012 20:13 (спустя 4 часа)

[Q] 

[Профиль]  [ЛС] 

baltimor30

Морской Волк

Пост 26-Ноя-2012 21:27 (спустя 1 час 13 минут)

[Q] 


Спасибо за оперативность.
[Профиль]  [ЛС] 

cruzzel

Корсар

Пост 26-Ноя-2012 21:39 (спустя 12 минут)

[Q] 


_________________
NEWSLOL.NET
[Профиль]  [ЛС] 

BottleHunter

Шкипер

Пост 27-Ноя-2012 11:19 (спустя 13 часов)

[Q] 

[Профиль]  [ЛС] 

lacky_slevin

Морской Волк

Пост 27-Ноя-2012 17:36 (спустя 6 часов)

[Q] 


_________________
НА БЕРЛИИИН
[Профиль]  [ЛС] 

enotko

Морской Волк

Пост 27-Ноя-2012 20:56 (спустя 3 часа)

[Q] 

[Профиль]  [ЛС] 

sergey-309

Морской Волк

Пост 28-Ноя-2012 00:14 (спустя 3 часа)

[Q] 

.
[Профиль]  [ЛС] 

bopoh-05

Лоцман

Пост 29-Ноя-2012 09:12 (спустя 1 день 8 часов)

[Q] 

[Профиль]  [ЛС] 

ГАЛАР

Штурман

Пост 29-Ноя-2012 14:41 (спустя 5 часов)

[Q] 

[Профиль]  [ЛС] 

skanik090

Лоцман

Пост 29-Ноя-2012 16:10 (спустя 1 час 29 минут)

[Q] 

[Профиль]  [ЛС] 

АняRoxy

Штурман

Пост 02-Дек-2012 18:34 (спустя 3 дня)

[Q] 

cj
[Профиль]  [ЛС] 

bull271174

Флибустьер

Пост 02-Дек-2012 20:51 (спустя 2 часа 17 минут)

[Q] 

[Профиль]  [ЛС] 

IIITOPIvI

Штурман

Пост 02-Дек-2012 21:05 (спустя 13 минут)

[Q] 

[Профиль]  [ЛС] 

got70

Легенда

752

Пост 07-Янв-2013 12:26 (спустя 1 месяц 4 дня)

[Q] 


_________________
Добро непременно победит зло!Непременно...Затем поставит на колени,и зверски УБЬЁТ!
[Профиль]  [ЛС] 

Aza73

Морской Волк

Пост 27-Янв-2013 10:56 (спустя 19 дней)

[Q] 

супер
[Профиль]  [ЛС] 
Показать сообщения:    
Ответить на тему

Текущее время: Сегодня 07:04

Часовой пояс: GMT + 4



Вы не можете начинать темы
Вы не можете отвечать на сообщения
Вы не можете редактировать свои сообщения
Вы не можете удалять свои сообщения
Вы не можете голосовать в опросах
Вы не можете прикреплять файлы к сообщениям
Вы не можете скачивать файлы

▼ Вниз