ML
     
  Уважаемый Гость!
Вы можете поддержать проект и зарегистрироваться у наших партнеров - онлайн-стратегия MyLands. При регистрации в игре Вы получите код, который сможете активировать после регистрации на pirat.ca и получить 1000 дублонов.

Ваш код:
fe4e93b754a7c2b306fcfc8bc32532ea1cf59d3b
 
     

Как приручить зомби / Papa, soy una zombi (Жоан Эспинач / Joan Espinach, Рикардо Рамон / Ricardo Ramon) [2012 г., мультфильм, ужасы, фэнтези, комедия, DVDRip] MVO [Лицензия]

Ответить на тему
 
Автор
Сообщение

Пост 04-Дек-2012 11:14

[Q] 

AGKRus36

-Как приручить зомби / Papa, soy una zombi-- Производство: Испания
Режиссер: Жоан Эспинач / Joan Espinach, Рикардо Рамон / Ricardo Ramon
Жанр: мультфильм, ужасы, фэнтези, комедия
Год выпуска: 2012 г.
Продолжительность: 01:18:36
Мировая премьера: 10 января 2012
Перевод: Профессиональный (многоголосый, закадровый) (Лицензия)
Роли озвучивали: Розер Баталла, Франческ Белда, Элизабет Бергалло, Иван Лабанда, Альберт Миеза, Мануэль Осто, Луис Посада, Паула Рибо, Клара Шварце, Нуриа Трифо-Описание: Дикси трудно переживает развод родителей. Она огородилась от всего мира, даже друзья не могут достучаться до нее. Мрачность у Дикси стала образом жизни, за что дети в школе начинают дразнить ее Зомби. Тень ненависти следует за ней, и от отчаяния она убегает в лес. Проснувшись, Дикси обнаруживает себя похороненной на одном из кладбищ. Жизнь среди мертвых манила ее давно, но стремилась ли она к этому на самом деле?-Сэмпл IMDB КиноПоиск
Качество видео: DVDRip
Формат видео: AVI
Видео кодек: XviD
Аудио кодек: AC3
Видео: 720x400, 2037 kbps, 25.000 fps
Аудио: AC3, 448 kb/s, (6 ch), 48.0 KHz
Cубтитры: отсутствуют
F:\Фильмы\Как приручить зомби\Kak.priruchit.zombi.2012.P.DVDRip.avi
General
Complete name : F:\Фильмы\Как приручить зомби\Kak.priruchit.zombi.2012.P.DVDRip.avi
Format : AVI
Format/Info : Audio Video Interleave
File size : 1.37 GiB
Duration : 1h 18mn
Overall bit rate : 2 495 Kbps
Writing application : VirtualDubMod 1.5.10.3 | www.virtualdub-fr.org || (build 2550/release)
Original source form/Name : Cartoon
Video #0
ID : 0
Format : MPEG-4 Visual
Format profile : Advanced [email protected]
Format settings, BVOP : Yes
Format settings, QPel : No
Format settings, GMC : No warppoints
Format settings, Matrix : Custom
Codec ID : XVID
Codec ID/Hint : XviD
Duration : 1h 18mn
Bit rate : 2 037 Kbps
Width : 720 pixels
Height : 400 pixels
Display aspect ratio : 16:9
Frame rate : 25.000 fps
Resolution : 8 bits
Colorimetry : 4:2:0
Scan type : Progressive
Bits/(Pixel*Frame) : 0.283
Stream size : 1.12 GiB (82%)
Writing library : XviD 1.2.1 (UTC 2008-12-04)
Audio #1
ID : 1
Format : AC-3
Format/Info : Audio Coding 3
Codec ID : 2000
Duration : 1h 18mn
Bit rate mode : Constant
Bit rate : 448 Kbps
Channel(s) : 6 channels
Channel positions : Front: L C R, Surround: L R, LFE
Sampling rate : 48.0 KHz
Stream size : 252 MiB (18%)
Alignment : Split accross interleaves
Interleave, duration : 40 ms (1.00 video frame)
Interleave, preload duration : 500 ms
Download / Скачать

Хотите скачать бесплатно? Зарегистрируйтесь на сайте (ссылка на регистрацию). Pirat.ca - самый быстрый торрент трекер в рунете!

Как скачивать  ·   Что такое торрент  ·   Рейтинг и ограничения

Пост 04-Дек-2012 11:30 (спустя 16 минут)

Топик был перенесен из форума Мультфильмы (Трюм) в форум Новинки (HD|DVD|BD|TV|SAT|PDTV| - Rips)

ara1205
 

SandroNek

Морской Волк

Пост 04-Дек-2012 12:07 (спустя 53 минуты)

[Q] 

Благодарю
[Профиль]  [ЛС] 

KoJl6aca

Морской Волк

Пост 04-Дек-2012 13:09 (спустя 1 час 1 минута)

[Q] 


_________________
[Профиль]  [ЛС] 

polozm

Легенда

Пост 04-Дек-2012 13:17 (спустя 8 минут)

[Q] 

ух ты!!!наверно прикольный мульт!!Спасибо!!

_________________
mac mini -2.0 GHz Intel Core i7/ 8 GB DDR3. /Intel HD 3000(512mb)OS X 10.9 Mavericks
[Профиль]  [ЛС] 

No.13

Лоцман

Пост 04-Дек-2012 16:38 (спустя 3 часа)

[Q] 

а почему везде вопросики?
в других раздачах нормально
[Профиль]  [ЛС] 

Dilan

Лоцман

Пост 04-Дек-2012 19:54 (спустя 3 часа)

[Q] 

Вот тоже интересно!!!
[Профиль]  [ЛС] 

Димидуэндо

Шкипер

Пост 04-Дек-2012 22:01 (спустя 2 часа 6 минут)

[Q] 

Посмотрим. Спасибо. Удачи!!!

_________________
Лучше сказать мало но хорошо!
[Профиль]  [ЛС] 

Jek@

Легенда

Пост 05-Дек-2012 05:08 (спустя 7 часов)

[Q] 

[Профиль]  [ЛС] 

korexx

Штурман

Пост 05-Дек-2012 15:02 (спустя 9 часов)

[Q] 

Скачала случайно, вместо Паранормана. Это уж очень детский мультик для пятилеток, но имеет смысл.
[Профиль]  [ЛС] 

anarhist89

Шкипер

Пост 05-Дек-2012 19:02 (спустя 3 часа)

[Q] 

[Профиль]  [ЛС] 

youfate

Корсар

Пост 09-Дек-2012 16:49 (спустя 3 дня)

[Q] 

[Профиль]  [ЛС] 

S_N_A_K_E

Флибустьер

Пост 11-Дек-2012 19:43 (спустя 2 дня 2 часа)

[Q] 

[Профиль]  [ЛС] 

Demon198455

Шкипер

Пост 16-Дек-2012 15:20 (спустя 4 дня)

[Q] 

[Профиль]  [ЛС] 

anarhist89

Шкипер

Пост 16-Дек-2012 17:10 (спустя 1 час 49 минут)

[Q] 

[Профиль]  [ЛС] 

король мерлин

Шкипер

Пост 17-Дек-2012 20:35 (спустя 1 день 3 часа)

[Q] 


_________________
Держи порох сухим, а шпагу острой!
[Профиль]  [ЛС] 

dragan123

Морской Волк

Пост 18-Дек-2012 03:44 (спустя 7 часов)

[Q] 

[Профиль]  [ЛС] 

Пират

1474

Пост 18-Дек-2012 18:28 (спустя 14 часов)

[Q] 

277613Это уж очень детский мультик для пятилеток, но имеет смысл.
очень детский... но для них был бы полезным, согласен!

_________________
Всё, что с нами происходит - результат наших прошлых поступков. Наше будущее зависит от того, что мы делаем сейчас...
[Профиль]  [ЛС] 

левка

Корсар

Пост 18-Дек-2012 20:39 (спустя 2 часа 10 минут)

[Q] 

г....... ещё то
[Профиль]  [ЛС] 

BOBROFF

Морской Волк

Пост 18-Дек-2012 22:08 (спустя 1 час 29 минут)

[Q] 

[Профиль]  [ЛС] 

SCORPION.

Морской Волк

Пост 31-Дек-2012 12:56 (спустя 12 дней)

[Q] 

[Профиль]  [ЛС] 

vik238

Корсар

Пост 05-Янв-2013 11:28 (спустя 4 дня)

[Q] 

[Профиль]  [ЛС] 

viji

Корсар

Пост 05-Янв-2013 13:35 (спустя 2 часа 7 минут)

[Q] 

Хм, а я думал Паранорман и это одно и тоже, оказывается нет. Качаю.
[Профиль]  [ЛС] 

ursus

Морской Волк

Пост 21-Янв-2013 11:39 (спустя 15 дней)

[Q] 

[Профиль]  [ЛС] 
Показать сообщения:    
Ответить на тему

Текущее время: Сегодня 14:31

Часовой пояс: GMT + 4



Вы не можете начинать темы
Вы не можете отвечать на сообщения
Вы не можете редактировать свои сообщения
Вы не можете удалять свои сообщения
Вы не можете голосовать в опросах
Вы не можете прикреплять файлы к сообщениям
Вы не можете скачивать файлы

▼ Вниз