ML
     
  Уважаемый Гость!
Вы можете поддержать проект и зарегистрироваться у наших партнеров - онлайн-стратегия MyLands. При регистрации в игре Вы получите код, который сможете активировать после регистрации на pirat.ca и получить 1000 дублонов.

Ваш код:
ea554e7ed3eacceeae87a8b30a9de3f086c18a84
 
     

Аэротачки / Sky Force 3D (Жоан Эспинач / Tony Tang) [2012 г., мультфильм, DVDRip] Dub [Лицензия]

Ответить на тему
 
Автор
Сообщение

Пост 04-Дек-2012 11:56

[Q] 

AGKRus36

-Аэротачки / Sky Force 3D-- Производство: США, Гонконг / Limelight Animation Studios, T-Films
Режиссер: Жоан Эспинач / Tony Tang
Жанр: мультфильм
Год выпуска: 2012 г.
Продолжительность: 01:17:40
Мировая премьера: 22 апреля 2012
Российская премьера: 11 октября 2012, «Top Film Distribution», «All Media»
Перевод: Профессиональный (полное дублирование) (Лицензия)
Роли озвучивали: Джон С. Флинн, Хезер Гордон, Аарон Кребс-Описание: В большой и дружной команде самолетов маленький Тинни никак не может добиться признания. Чтобы в глазах окружающих стать настоящим героем, он, наперекор Капитану Бену, отправляется в одиночку спасать жителей города от пожара. Жизнь Тинни оказывается под угрозой, но его спасает Капитан Бен ценой своей жизни. Чувство вины и страх снова подняться в воздух заставляет Тинни покинуть команду и отправиться работать на шахту. И только жуткий пожар, вспыхнувший в шахте, разбудил в Тинни старые инстинкты. Спасая своих друзей, он осознает свое истинное призвание и возвращается к команде пожарных самолетов, преодолевая свой страх высоты ради безопасности родного города.-Сэмпл IMDB КиноПоиск
Качество видео: DVDRip
Формат видео: AVI
Видео кодек: XviD
Аудио кодек: AC3
Видео: 720x400, 2066 kbps, 25.000 fps
Аудио: AC3, 448 kb/s (6 ch), 48.0 KHz
Cубтитры: отсутствуют
F:\Фильмы\Аэротачки\Aerotachki.2012.D.DVDRip.avi
General
Complete name : F:\Фильмы\Аэротачки\Aerotachki.2012.D.DVDRip.avi
Format : AVI
Format/Info : Audio Video Interleave
File size : 1.37 GiB
Duration : 1h 17mn
Overall bit rate : 2 524 Kbps
Writing application : VirtualDubMod 1.5.10.3 | www.virtualdub-fr.org || (build 2550/release)
Original source form/Name : Cartoon
Video #0
ID : 0
Format : MPEG-4 Visual
Format profile : Advanced [email protected]
Format settings, BVOP : Yes
Format settings, QPel : No
Format settings, GMC : No warppoints
Format settings, Matrix : Custom
Codec ID : XVID
Codec ID/Hint : XviD
Duration : 1h 17mn
Bit rate : 2 066 Kbps
Width : 720 pixels
Height : 400 pixels
Display aspect ratio : 16:9
Frame rate : 25.000 fps
Resolution : 8 bits
Colorimetry : 4:2:0
Scan type : Progressive
Bits/(Pixel*Frame) : 0.287
Stream size : 1.12 GiB (82%)
Writing library : XviD 1.2.1 (UTC 2008-12-04)
Audio #1
ID : 1
Format : AC-3
Format/Info : Audio Coding 3
Codec ID : 2000
Duration : 1h 17mn
Bit rate mode : Constant
Bit rate : 448 Kbps
Channel(s) : 6 channels
Channel positions : Front: L C R, Surround: L R, LFE
Sampling rate : 48.0 KHz
Stream size : 249 MiB (18%)
Alignment : Split accross interleaves
Interleave, duration : 40 ms (1.00 video frame)
Interleave, preload duration : 500 ms
Download / Скачать

Хотите скачать бесплатно? Зарегистрируйтесь на сайте (ссылка на регистрацию). Pirat.ca - самый быстрый торрент трекер в рунете!

Как скачивать  ·   Что такое торрент  ·   Рейтинг и ограничения

Пост 04-Дек-2012 12:35 (спустя 38 минут)

Топик был перенесен из форума Мультфильмы (Трюм) в форум Новинки (HD|DVD|BD|TV|SAT|PDTV| - Rips)

erchine
 

polozm

Легенда

Пост 04-Дек-2012 13:16 (спустя 1 час 19 минут)

[Q] 

спасибо

_________________
mac mini -2.0 GHz Intel Core i7/ 8 GB DDR3. /Intel HD 3000(512mb)OS X 10.9 Mavericks
[Профиль]  [ЛС] 

scorpions73

Штурман

Пост 04-Дек-2012 18:10 (спустя 4 часа)

[Q] 

а что за новый шрифт?
[Профиль]  [ЛС] 

sergein

Корсар

Пост 04-Дек-2012 18:40 (спустя 29 минут)

[Q] 

[Профиль]  [ЛС] 

mstas

Лоцман

Пост 04-Дек-2012 18:46 (спустя 5 минут)

[Q] 

Народ, а что со шрифтом???
[Профиль]  [ЛС] 

Korka

Лоцман

Пост 04-Дек-2012 19:13 (спустя 26 минут)

[Q] 

че за фигня
[Профиль]  [ЛС] 

binmaster08

Штурман

Пост 04-Дек-2012 22:49 (спустя 3 часа)

[Q] 

Надеюсь сын-поклоннику тачек понравится
[Профиль]  [ЛС] 

maksim51185

Шкипер

Пост 05-Дек-2012 12:08 (спустя 13 часов)

[Q] 

[Профиль]  [ЛС] 

Aleks44

Гроза морей

Пост 05-Дек-2012 19:57 (спустя 7 часов)

[Q] 

Интересный мульт учит работать в команде
[Профиль]  [ЛС] 

SaNyABA89

Морской Волк

Пост 06-Дек-2012 22:18 (спустя 1 день 2 часа)

[Q] 


_________________
Талантам нужно помогать, бездарности пробьются сами!
[Профиль]  [ЛС] 

fredkill13

Лоцман

Пост 07-Дек-2012 14:15 (спустя 15 часов)

[Q] 

походу я извращенец... прочитал сначала "эротачки"
[Профиль]  [ЛС] 

alexsey

Корсар

77

Пост 08-Дек-2012 13:22 (спустя 23 часа)

[Q] 

досмотреть до конца не смог
[Профиль]  [ЛС] 

U-858

Флибустьер

Пост 08-Дек-2012 21:40 (спустя 8 часов)

[Q] 

[Профиль]  [ЛС] 

S_N_A_K_E

Флибустьер

Пост 11-Дек-2012 19:25 (спустя 2 дня 21 час)

[Q] 

[Профиль]  [ЛС] 

sd535

Флибустьер

1795

Пост 11-Дек-2012 22:54 (спустя 3 часа)

[Q] 

[Профиль]  [ЛС] 

JUDASANS

Лоцман

Пост 12-Дек-2012 21:01 (спустя 22 часа)

[Q] 

[Профиль]  [ЛС] 

Demon198455

Шкипер

Пост 16-Дек-2012 15:19 (спустя 3 дня)

[Q] 

[Профиль]  [ЛС] 

Alex-dix

Флибустьер

Пост 23-Дек-2012 10:57 (спустя 6 дней)

[Q] 

[Профиль]  [ЛС] 

baltimor30

Морской Волк

Пост 23-Дек-2012 17:22 (спустя 6 часов)

[Q] 

Думаю ребенку понравит ся.
[Профиль]  [ЛС] 

wings70

Штурман

Пост 28-Дек-2012 23:11 (спустя 5 дней)

[Q] 

...похоже хрень ....но качну....спасибо раздающим!
[Профиль]  [ЛС] 

levha35

Штурман

Пост 03-Янв-2013 23:32 (спустя 6 дней)

[Q] 

Обожаю мультики никто не знает когда ральф выйдет в качестве
[Профиль]  [ЛС] 

recon811

Шкипер

Пост 04-Янв-2013 14:54 (спустя 15 часов)

[Q] 

класный мульт, ребенку очень понравился.
[Профиль]  [ЛС] 

genaev82

Шкипер

Пост 05-Янв-2013 00:30 (спустя 9 часов)

[Q] 

ммммммммммм!
[Профиль]  [ЛС] 

Пост 05-Янв-2013 13:24 (спустя 12 часов)

Топик был перенесен из форума Новинки (HD|DVD|BD|TV|SAT|PDTV| - Rips) в форум Зарубежные полнометражные мультфильмы

ara1205
 

SCORPION.

Морской Волк

Пост 08-Сен-2013 14:07 (спустя 8 месяцев 3 дня)

[Q] 

Спасибо!!! Мне понравилось Раздающему респект!
[Профиль]  [ЛС] 

Strix

Флибустьер

Пост 15-Фев-2015 10:02 (спустя 1 год 5 месяцев)

[Q] 

Спасибо, заценим
[Профиль]  [ЛС] 
Показать сообщения:    
Ответить на тему

Текущее время: Сегодня 12:13

Часовой пояс: GMT + 4



Вы не можете начинать темы
Вы не можете отвечать на сообщения
Вы не можете редактировать свои сообщения
Вы не можете удалять свои сообщения
Вы не можете голосовать в опросах
Вы не можете прикреплять файлы к сообщениям
Вы не можете скачивать файлы

▼ Вниз