ML
     
  Уважаемый Гость!
Вы можете поддержать проект и зарегистрироваться у наших партнеров - онлайн-стратегия MyLands. При регистрации в игре Вы получите код, который сможете активировать после регистрации на pirat.ca и получить 1000 дублонов.

Ваш код:
ba41f7961e0b4717aed6a401d955262223b8f6c4
 
     

Пожарный Сэм - Большой огонь Понтипанди / Fireman Sam - The Great Fire Of Pontypandy (Гари Эндрюс / Gary Andrews) [2010 г., детский, анимационный, DVDRip] (VO)

Ответить на тему
 
Автор
Сообщение

Пост 16-Дек-2011 08:03

[Q] 

ara1205

Пожарный Сэм - Большой огонь Понтипанди / Fireman Sam - The Great Fire Of Pontypandy
Год выпуска: 2010
Производство: Великобритания
Жанр: детский, анимационный
Продолжительность: 01:00:20
Перевод: Любительский (одноголосый) - (Доцент)
Режиссер: Гари Эндрюс / Gary Andrews
Описание: После награждения пожарного Сэма медалью «За храбрость», присвоенной ему за героическое спасение человека, главный пожарный инспектор Бойс предлагает Сэму пост начальника пожарной части в городе Ньютайн. В это же время пионеры Понтипанди отправляются в поход на выживание и их неосторожное обращение с огнем приводит к лесному пожару. Вспыхнувший пожар угрожает городу Понтипанди, поэтому город приходится эвакуировать. Из этого специального выпуска Вы узнаете удастся ли спасти Понтипанди от пожара, и останется ли пожарный Сэм работать в его пожарной части
Сэмпл,
Источник/Качество: DVDRip
Формат: AVI
Видео кодек: XviD
Аудио кодек: MP3
Видео: 688x384 (1.79:1), 25.000 fps, XviD MPEG-4 ~1 590 kbps avg, 0.24 bit/pixel
Аудио: 44.1 kHz, MPEG Layer 3, 2 ch, ~128 kbps
General
Complete name : C:\Documents and Settings\Admin\Рабочий стол\Пожарный Сэм\Пожарный.Сэм_ Большой.огонь.Понтипанди.avi
Format : AVI
Format/Info : Audio Video Interleave
File size : 745 MiB
Duration : 1h 0mn
Overall bit rate : 1 728 Kbps
Writing application : VirtualDubMod 1.5.10.2 (build 2540/release)
Writing library : VirtualDubMod build 2540/release
Video
Format : MPEG-4 Visual
Format profile : Streaming [email protected]
Format settings, BVOP : Yes
Format settings, QPel : No
Format settings, GMC : No warppoints
Format settings, Matrix : Default
Codec ID : XVID
Codec ID/Hint : XviD
Duration : 1h 0mn
Bit rate : 1 590 Kbps
Width : 688 pixels
Height : 384 pixels
Display aspect ratio : 16/9
Frame rate : 25.000 fps
Resolution : 24 bits
Colorimetry : 4:2:0
Scan type : Progressive
Bits/(Pixel*Frame) : 0.241
Stream size : 686 MiB (92%)
Writing library : XviD 50
Audio
Format : MPEG Audio
Format version : Version 1
Format profile : Layer 3
Codec ID : 55
Codec ID/Hint : MP3
Duration : 1h 0mn
Bit rate mode : Constant
Bit rate : 128 Kbps
Channel(s) : 2 channels
Sampling rate : 44.1 KHz
Resolution : 16 bits
Stream size : 55.2 MiB (7%)
Alignment : Split accross interleaves
Interleave, duration : 40 ms (1.00 video frame)
Interleave, preload duration : 500 ms




МОИ РАЗДАЧИ
Download / Скачать

Хотите скачать бесплатно? Зарегистрируйтесь на сайте (ссылка на регистрацию). Pirat.ca - самый быстрый торрент трекер в рунете!

Как скачивать  ·   Что такое торрент  ·   Рейтинг и ограничения

Пост 16-Дек-2011 08:23 (спустя 19 минут)

Топик был перенесен из форума Мультипликация в форум Зарубежные полнометражные мультфильмы

zyyx
 

CHARLI2236

1097

Пост 24-Июл-2013 19:39 (спустя 1 год 7 месяцев)

[Q] 

3

_________________
[Профиль]  [ЛС] 
Показать сообщения:    
Ответить на тему

Текущее время: Сегодня 14:45

Часовой пояс: GMT + 4



Вы не можете начинать темы
Вы не можете отвечать на сообщения
Вы не можете редактировать свои сообщения
Вы не можете удалять свои сообщения
Вы не можете голосовать в опросах
Вы не можете прикреплять файлы к сообщениям
Вы не можете скачивать файлы

▼ Вниз