ML
     
  Уважаемый Гость!
Вы можете поддержать проект и зарегистрироваться у наших партнеров - онлайн-стратегия MyLands. При регистрации в игре Вы получите код, который сможете активировать после регистрации на pirat.ca и получить 1000 дублонов.

Ваш код:
9cfe162481db953a6549f32179d7b3900b8b8643
 
     

Аэротачки / Sky Force 3D (Тони Тэнг / Tony Tang) [2012 г., мультфильм, DVDRip] Dub

Ответить на тему
 
Автор
Сообщение

Пост 14-Дек-2012 21:54

[Q] 

ara1205

-Аэротачки / Sky Force 3D-- Производство: США, Гонконг
Год выпуска: 2012 г.
Жанр: мультфильм
Продолжительность: 01:17:40
Дата выхода DVD: 6 декабря 2012
Перевод: Профессиональный (полное дублирование)-Режиссер: Тони Тэнг / Tony Tang-Описание: В большой и дружной команде самолетов маленький Тинни никак не может добиться признания. Чтобы в глазах окружающих стать настоящим героем, он, наперекор Капитану Бену, отправляется в одиночку спасать жителей города от пожара. Жизнь Тинни оказывается под угрозой, но его спасает Капитан Бен ценой своей жизни.
Чувство вины и страх снова подняться в воздух заставляет Тинни покинуть команду и отправиться работать на шахту. И только жуткий пожар, вспыхнувший в шахте, разбудил в Тинни старые инстинкты. Спасая своих друзей, он осознает свое истинное призвание и возвращается к команде пожарных самолетов, преодолевая свой страх высоты ради безопасности родного города.-- --Качество видео: DVDRip
Формат видео: AVI
Видео кодек: XviD
Аудио кодек: AC3
Видео: 688x384, 1139 kbps, 25.000 fps
Аудио: 192 kb/s, 2 ch, 48.0 KHz
Cубтитры: отсутствуют-
C:\Users\Ромик\Pictures\Посмотреть\Аэротачки\Aerotachki.2012.DVDRip.745Mb.[pirat.ca].avi
General
Complete name : C:\Users\Ромик\Pictures\Посмотреть\Аэротачки\Aerotachki.2012.DVDRip.745Mb.[pirat.ca].avi
Format : AVI
Format/Info : Audio Video Interleave
File size : 745 MiB
Duration : 1h 17mn
Overall bit rate : 1 341 Kbps
Movie name : Aerotachki.2012.DVDRip.745Mb.[pirat.ca]
Writing application : VirtualDubMod 1.5.10.2 (build 2540/release)
Video #0
ID : 0
Format : MPEG-4 Visual
Format profile : Advanced [email protected]
Format settings, BVOP : 2
Format settings, QPel : No
Format settings, GMC : No warppoints
Format settings, Matrix : Default (MPEG)
Codec ID : XVID
Codec ID/Hint : XviD
Duration : 1h 17mn
Bit rate : 1 139 Kbps
Width : 688 pixels
Height : 384 pixels
Display aspect ratio : 16:9
Frame rate : 25.000 fps
Color space : YUV
Chroma subsampling : 4:2:0
Bit depth : 8 bits
Scan type : Interlaced
Scan order : Bottom Field First
Compression mode : Lossy
Bits/(Pixel*Frame) : 0.172
Stream size : 633 MiB (85%)
Writing library : XviD 1.2.0.dev47 (UTC 2006-11-01)
Audio #1
ID : 1
Format : AC-3
Format/Info : Audio Coding 3
Mode extension : CM (complete main)
Codec ID : 2000
Duration : 1h 17mn
Bit rate mode : Constant
Bit rate : 192 Kbps
Channel(s) : 2 channels
Channel positions : Front: L R
Sampling rate : 48.0 KHz
Bit depth : 16 bits
Compression mode : Lossy
Stream size : 107 MiB (14%)
Alignment : Split accross interleaves
Interleave, duration : 40 ms (1.00 video frame)
Interleave, preload duration : 500 ms
-
-
-
Download / Скачать

Хотите скачать бесплатно? Зарегистрируйтесь на сайте (ссылка на регистрацию). Pirat.ca - самый быстрый торрент трекер в рунете!

Как скачивать  ·   Что такое торрент  ·   Рейтинг и ограничения

Пост 14-Дек-2012 22:07 (спустя 12 минут)

Топик был перенесен из форума Зарубежное Кино (Трюм) в форум Новинки (HD|DVD|BD|TV|SAT|PDTV| - Rips)

erchine
 

polozm

Легенда

Пост 15-Дек-2012 08:59 (спустя 11 часов)

[Q] 

дочке 5 лет.После 10 минут просмотра попросила выключить этот мульт db Хотя всегда ОЧЕНЬ любит новые мультики bw bn

_________________
mac mini -2.0 GHz Intel Core i7/ 8 GB DDR3. /Intel HD 3000(512mb)OS X 10.9 Mavericks
[Профиль]  [ЛС] 

vik238

Корсар

Пост 15-Дек-2012 15:00 (спустя 6 часов)

[Q] 

[Профиль]  [ЛС] 

SyXapuK

Штурман

Пост 15-Дек-2012 16:03 (спустя 1 час 2 минуты)

[Q] 

cgc
[Профиль]  [ЛС] 

alexey3312

Флибустьер

398

Пост 16-Дек-2012 16:38 (спустя 1 день)

[Q] 

Та же хрень... Пацану 4 с половиной, поглядел минут пять и забил, играть побежал...

_________________
Металлисты - это самый развитой и передовой класс, и никто не может отрицать, что это и есть передовой отряд всего пролетариата. В.И. Ленин
[Профиль]  [ЛС] 

левка

Корсар

Пост 16-Дек-2012 17:34 (спустя 56 минут)

[Q] 

284693Та же хрень... Пацану 4 с половиной, поглядел минут пять и забил, играть побежал...
+1 так себе
[Профиль]  [ЛС] 

Пост 15-Янв-2013 16:08 (спустя 29 дней)

Топик был перенесен из форума Новинки (HD|DVD|BD|TV|SAT|PDTV| - Rips) в форум Зарубежные полнометражные мультфильмы

ara1205
 

vata45

Морской Волк

13

Пост 25-Июн-2013 20:45 (спустя 6 месяцев 9 дней)

[Q] 

Смысл выкладывать если никто не раздает!!! Зря бочку закатил. удаляюсь.

_________________
Лучше ужасный конец, чем бесконечный ужас...
[Профиль]  [ЛС] 
Показать сообщения:    
Ответить на тему

Текущее время: Сегодня 06:04

Часовой пояс: GMT + 4



Вы не можете начинать темы
Вы не можете отвечать на сообщения
Вы не можете редактировать свои сообщения
Вы не можете удалять свои сообщения
Вы не можете голосовать в опросах
Вы не можете прикреплять файлы к сообщениям
Вы не можете скачивать файлы

▼ Вниз