ML
     
  Уважаемый Гость!
Вы можете поддержать проект и зарегистрироваться у наших партнеров - онлайн-стратегия MyLands. При регистрации в игре Вы получите код, который сможете активировать после регистрации на pirat.ca и получить 1000 дублонов.

Ваш код:
8dcb839cf1b47e56d6dc42d17f26b3e4822e9aee
 
     

Шевели ластами 2 / Sammy's avonturen 2 (Бен Стассен / Ben Stassen) [2012 г., мультфильм, приключения, HDRip] Dub [Лицензия]

Страницы :  1, 2  След.

Ответить на тему
 
Автор
Сообщение

Пост 15-Дек-2012 16:06

[Q] 

AGKRus36

-Шевели ластами 2 / Sammy's avonturen 2-«Расслабь панцирь»- Производство: Бельгия / nWave Pictures, Illuminata Pictures, Motion Investment Group
Режиссер: Бен Стассен / Ben Stassen
Жанр: мультфильм, приключения
Год выпуска: 2012 г.
Продолжительность: 01:32:50
Мировая премьера: 2 августа 2012
Российская премьера: 16 августа 2012, «West»
Перевод: Профессиональный (полное дублирование) (Лицензия)
Роли озвучивали: Билли Ангер, Пэт Кэрролл, Карлос МакКаллерс II, Синда Адамс, Дино Андраде, Крис Эндрю Кулла, Изабель Фурман, Уэсли Джонни, Силье Рейномо, Дуглас Райан Рот-Описание: Верные друзья навсегда, черепахи Сэмми и Рей, наслаждаются размеренной жизнью вблизи океана, а также присматривают за только что вылупившимися Рикки и Эллой. Внезапно, браконьер хватает больших черепах, они нужны ему для захватывающего морского шоу в Дубае. Центральная фигура шоу, морской конёк Большой Ди, посвящает новичков в свои планы на грандиозный побег.
Но, когда маленькие Рикки и Элла прибывают, чтобы спасти «дедушек», планы черепах и их новых друзей: пучеглазой рыбки Джимбо, осьминога Анабель, омара и большой семьи пингвинов, меняются. После ряда волнующих приключений и побегов, наши герои направляются на юг, чтобы встретиться с Шелли, первой и единственной любовью Сэмми.-Сэмпл IMDB КиноПоиск
Качество видео: HDRip
Формат видео: AVI
Видео кодек: XviD
Аудио кодек: AC3
Видео: 720x400 (1.80:1), 23.976 fps, XviD build 50 ~1654 kbps avg, 0.24 bit/pixel
Аудио: 48 kHz, AC3 Dolby Digital, 3/2 (L,C,R,l,r) + LFE ch, ~448 kbps
Cубтитры: отсутствуют
F:\Фильмы\Шевели ластами 2\Sheveli.lastami.2.2012.D.HDRip.avi
General
Complete name : F:\Фильмы\Шевели ластами 2\Sheveli.lastami.2.2012.D.HDRip.avi
Format : AVI
Format/Info : Audio Video Interleave
File size : 1.37 GiB
Duration : 1h 32mn
Overall bit rate : 2 111 Kbps
Writing application : VirtualDubMod 1.5.10.2 (build 2542/release)
Writing library : VirtualDubMod build 2542/release
Video #0
ID : 0
Format : MPEG-4 Visual
Format profile : Advanced [email protected]
Format settings, BVOP : 2
Format settings, QPel : No
Format settings, GMC : No warppoints
Format settings, Matrix : Default (MPEG)
Codec ID : XVID
Codec ID/Hint : XviD
Duration : 1h 32mn
Bit rate : 1 654 Kbps
Width : 720 pixels
Height : 400 pixels
Display aspect ratio : 16:9
Frame rate : 23.976 fps
Color space : YUV
Chroma subsampling : 4:2:0
Bit depth : 8 bits
Scan type : Interlaced
Scan order : Bottom Field First
Compression mode : Lossy
Bits/(Pixel*Frame) : 0.240
Stream size : 1.07 GiB (78%)
Writing library : XviD 1.2.1 (UTC 2008-12-04)
Audio #1
ID : 1
Format : AC-3
Format/Info : Audio Coding 3
Mode extension : CM (complete main)
Format settings, Endianness : Big
Codec ID : 2000
Duration : 1h 32mn
Bit rate mode : Constant
Bit rate : 448 Kbps
Channel(s) : 6 channels
Channel positions : Front: L C R, Side: L R, LFE
Sampling rate : 48.0 KHz
Bit depth : 16 bits
Compression mode : Lossy
Stream size : 298 MiB (21%)
Alignment : Split accross interleaves
Interleave, duration : 42 ms (1.00 video frame)
Interleave, preload duration : 500 ms
Download / Скачать

Хотите скачать бесплатно? Зарегистрируйтесь на сайте (ссылка на регистрацию). Pirat.ca - самый быстрый торрент трекер в рунете!

Как скачивать  ·   Что такое торрент  ·   Рейтинг и ограничения

Пост 15-Дек-2012 16:31 (спустя 25 минут)

Топик был перенесен из форума Мультфильмы (Трюм) в форум Новинки (HD|DVD|BD|TV|SAT|PDTV| - Rips)

erchine
 

polozm

Легенда

Пост 15-Дек-2012 17:15 (спустя 1 час 8 минут)

[Q] 

Спасибо!!

_________________
mac mini -2.0 GHz Intel Core i7/ 8 GB DDR3. /Intel HD 3000(512mb)OS X 10.9 Mavericks
[Профиль]  [ЛС] 

cssergey

Корсар

Пост 15-Дек-2012 17:35 (спустя 20 минут)

[Q] 

[Профиль]  [ЛС] 

Jell

Корсар

Пост 15-Дек-2012 22:58 (спустя 5 часов)

[Q] 

[Профиль]  [ЛС] 

bull271174

Флибустьер

Пост 16-Дек-2012 13:26 (спустя 14 часов)

[Q] 

[Профиль]  [ЛС] 

левка

Корсар

Пост 16-Дек-2012 17:39 (спустя 4 часа)

[Q] 

[Профиль]  [ЛС] 

король мерлин

Шкипер

Пост 16-Дек-2012 22:10 (спустя 4 часа)

[Q] 

1 часть понравилась, надеюсь 2 не разочарует!!!

_________________
Держи порох сухим, а шпагу острой!
[Профиль]  [ЛС] 

trogvar_10

Корсар

38

Пост 17-Дек-2012 01:51 (спустя 3 часа)

[Q] 

[Профиль]  [ЛС] 

Пират

1475

Пост 18-Дек-2012 14:18 (спустя 1 день 12 часов)

[Q] 

а была первая?

_________________
Всё, что с нами происходит - результат наших прошлых поступков. Наше будущее зависит от того, что мы делаем сейчас...
[Профиль]  [ЛС] 

Sonic777

Корсар

Пост 18-Дек-2012 18:44 (спустя 4 часа)

[Q] 

[Профиль]  [ЛС] 

seta

Шкипер

Пост 18-Дек-2012 19:03 (спустя 19 минут)

[Q] 

[Профиль]  [ЛС] 

okc9

Лоцман

Пост 18-Дек-2012 19:22 (спустя 18 минут)

[Q] 

[Профиль]  [ЛС] 

allexxxv

Морской Волк

Пост 22-Дек-2012 11:39 (спустя 3 дня)

[Q] 

[Профиль]  [ЛС] 

Lvena

Шкипер

Пост 26-Дек-2012 14:26 (спустя 4 дня)

[Q] 

[Профиль]  [ЛС] 

lebonnet

Флибустьер

Пост 26-Дек-2012 20:45 (спустя 6 часов)

[Q] 

[Профиль]  [ЛС] 

vik238

Корсар

Пост 03-Янв-2013 22:20 (спустя 8 дней)

[Q] 

[Профиль]  [ЛС] 

Ambre

Корсар

Пост 04-Янв-2013 12:36 (спустя 14 часов)

[Q] 

[Профиль]  [ЛС] 

Stalker_29

Корсар

Пост 05-Янв-2013 12:25 (спустя 23 часа)

[Q] 

Большое спасибо!!
[Профиль]  [ЛС] 

Sergeyrsnk

Лоцман

Пост 14-Янв-2013 08:32 (спустя 8 дней)

[Q] 

[Профиль]  [ЛС] 

FruTT

Корсар

2

Пост 16-Янв-2013 13:47 (спустя 2 дня 5 часов)

[Q] 


_________________
Подпись отключена за нарушение правил форума
[Профиль]  [ЛС] 

Геннадий

Морской Волк

Пост 16-Янв-2013 14:09 (спустя 22 минуты)

[Q] 

[Профиль]  [ЛС] 

sba

Морской Волк

Пост 16-Янв-2013 18:37 (спустя 4 часа)

[Q] 

[Профиль]  [ЛС] 

Пост 18-Янв-2013 09:30 (спустя 1 день 14 часов)

Топик был перенесен из форума Новинки (HD|DVD|BD|TV|SAT|PDTV| - Rips) в форум Зарубежные полнометражные мультфильмы

ara1205
 

Stormilo

Морской Волк

Пост 29-Янв-2013 15:09 (спустя 12 дней)

[Q] 


_________________
[Профиль]  [ЛС] 

westup

Штурман

Пост 07-Фев-2013 00:22 (спустя 8 дней)

[Q] 


_________________
[Профиль]  [ЛС] 

igo-go

Корсар

Пост 14-Фев-2013 10:26 (спустя 7 дней)

[Q] 

хрень
[Профиль]  [ЛС] 

Paseidon80

Морской Волк

Пост 20-Мар-2013 19:11 (спустя 1 месяц 6 дней)

[Q] 

[Профиль]  [ЛС] 

_Marks_

Флибустьер

Пост 03-Апр-2013 10:21 (спустя 13 дней)

[Q] 

[Профиль]  [ЛС] 

igo-go

Корсар

Пост 27-Апр-2013 17:46 (спустя 24 дня)

[Q] 

на 3
[Профиль]  [ЛС] 
Показать сообщения:    
Ответить на тему

Текущее время: Сегодня 04:19

Часовой пояс: GMT + 4



Вы не можете начинать темы
Вы не можете отвечать на сообщения
Вы не можете редактировать свои сообщения
Вы не можете удалять свои сообщения
Вы не можете голосовать в опросах
Вы не можете прикреплять файлы к сообщениям
Вы не можете скачивать файлы

▼ Вниз