ML
     
  Уважаемый Гость!
Вы можете поддержать проект и зарегистрироваться у наших партнеров - онлайн-стратегия MyLands. При регистрации в игре Вы получите код, который сможете активировать после регистрации на pirat.ca и получить 1000 дублонов.

Ваш код:
5af7de75d3db09b6a37bc8bab71b0e87ccde73d6
 
     

Шевели ластами 2 / Sammy's avonturen 2 (Бен Стассен / Ben Stassen) [2012 г., мультфильм, приключения, HDRip] Dub

Ответить на тему
 
Автор
Сообщение

Пост 16-Дек-2012 12:44

[Q] 

ara1205

-Шевели ластами 2 / Sammy's avonturen 2-- Производство: Бельгия
Год выпуска: 2012 г.
Жанр: мультфильм, приключения
Продолжительность: 01:32:50
Перевод: Профессиональный (полное дублирование)-Режиссер: Бен Стассен / Ben Stassen-Описание: Верные друзья навсегда, черепахи Сэмми и Рей, наслаждаются размеренной жизнью вблизи океана, а также присматривают за только что вылупившимися Рикки и Эллой. Внезапно, браконьер хватает больших черепах, они нужны ему для захватывающего морского шоу в Дубае. Центральная фигура шоу, морской конёк Большой Ди, посвящает новичков в свои планы на грандиозный побег.
Но, когда маленькие Рикки и Элла прибывают, чтобы спасти «дедушек», планы черепах и их новых друзей: пучеглазой рыбки Джимбо, осьминога Анабель, омара и большой семьи пингвинов, меняются. После ряда волнующих приключений и побегов, наши герои направляются на юг, чтобы встретиться с Шелли, первой и единственной любовью Сэмми.-- --Качество видео: HDRip
Формат видео: AVI
Видео кодек: XviD
Аудио кодек: MP3
Видео: 688x384, 23.976 fps, 986 kbps avg, 0.156 bit/pixel
Аудио: 128 kb/s, 2 ch, 48.0 KHz
Cубтитры: отсутствуют-
Общее
Полное имя : C:\Users\Ромик\Pictures\Посмотреть\Шевели ластами 2\Sheveli.Lastami.II.2012.HDRip.745Mb.[pirat.ca].avi
Формат : AVI
Формат/Информация : Audio Video Interleave
Размер файла : 746 Мбайт
Продолжительность : 1 ч. 32 м.
Общий поток : 1123 Кбит/сек
Название фильма : Sheveli.Lastami.2012.HDRip.745Mb.[pirat.ca]
Программа кодирования : VirtualDubMod 1.5.10.2 (build 2540/release)
Видео
Идентификатор : 0
Формат : MPEG-4 Visual
Профиль формата : Advanced [email protected]
Параметр BVOP формата : 2
Параметр QPel формата : Нет
Параметр GMC формата : Без точки перехода
Параметр матрицы формата : Default (MPEG)
Идентификатор кодека : XVID
Идентификатор кодека/Подсказка : XviD
Продолжительность : 1 ч. 32 м.
Битрейт : 986 Кбит/сек
Ширина : 688 пикселей
Высота : 384 пикселя
Соотношение сторон : 16:9
Частота кадров : 23,976 кадра/сек
Цветовое пространство : YUV
Субдискретизация насыщенности : 4:2:0
Битовая глубина : 8 бит
Тип развёртки : Прогрессивная
Метод сжатия : С потерями
Бит/(Пиксели*Кадры) : 0.156
Размер потока : 655 Мбайт (88%)
Библиотека кодирования : XviD 1.2.0.dev47 (UTC 2006-11-01)
Аудио
Идентификатор : 1
Формат : MPEG Audio
Версия формата : Version 1
Профиль формата : Layer 3
Идентификатор кодека : 55
Идентификатор кодека/Подсказка : MP3
Продолжительность : 1 ч. 32 м.
Вид битрейта : Постоянный
Битрейт : 128 Кбит/сек
Каналы : 2 канала
Частота : 48,0 КГц
Метод сжатия : С потерями
Размер потока : 85,0 Мбайт (11%)
Выравнивание : Соединение по промежуткам
Продолжительность промежутка : 42 мс. (1,00 видеокадр)
Время предзагрузки промежутка : 504 мс.
Библиотека кодирования : LAME3.99r
Настройки программы : -m s -V 4 -q 2 -lowpass 17 -b 128
-
-
-
Download / Скачать

Хотите скачать бесплатно? Зарегистрируйтесь на сайте (ссылка на регистрацию). Pirat.ca - самый быстрый торрент трекер в рунете!

Как скачивать  ·   Что такое торрент  ·   Рейтинг и ограничения

yulya230784

Морской Волк

927

Пост 16-Дек-2012 18:37 (спустя 5 часов)

[Q] 

Спасибо!!!
[Профиль]  [ЛС] 

ara1205 ®

69735

Пост 15-Янв-2013 16:10 (спустя 29 дней)

[Q] 

Эх!!! Такой красивый мульт, и не каких комментариев! bh
[Профиль]  [ЛС] 

Dj NIKI

Флибустьер

3041

Пост 15-Янв-2013 21:37 (спустя 5 часов)

[Q] 

Мульт на раз посмотреть... Первая часть была интересней... Было больше приключений и т.д. А эта так себе...
Автору спасибо! Ром в трюме!

_________________
[Профиль]  [ЛС] 

Serf

Корсар

163

Пост 15-Янв-2013 23:26 (спустя 1 час 49 минут)

[Q] 

306584Мульт на раз посмотреть... Первая часть была интересней... Было больше приключений и т.д. А эта так себе...
Автору спасибо! Ром в трюме!
Норм и этот мульт племяхе очь понравился ad
Ведь для детей расчитан af

_________________
[Профиль]  [ЛС] 

PI100LET2

Штурман

Пост 16-Янв-2013 13:22 (спустя 13 часов)

[Q] 

ay
[Профиль]  [ЛС] 

SacredWolf

Морской Волк

Пост 17-Янв-2013 09:14 (спустя 19 часов)

[Q] 

согласен, первая часть была намного лучше.
[Профиль]  [ЛС] 

sergein

Корсар

Пост 17-Янв-2013 10:11 (спустя 57 минут)

[Q] 

[Профиль]  [ЛС] 

Пост 18-Янв-2013 09:29 (спустя 23 часа)

Топик был перенесен из форума Новинки (HD|DVD|BD|TV|SAT|PDTV| - Rips) в форум Зарубежные полнометражные мультфильмы

ara1205
 
Показать сообщения:    
Ответить на тему

Текущее время: Сегодня 14:10

Часовой пояс: GMT + 4



Вы не можете начинать темы
Вы не можете отвечать на сообщения
Вы не можете редактировать свои сообщения
Вы не можете удалять свои сообщения
Вы не можете голосовать в опросах
Вы не можете прикреплять файлы к сообщениям
Вы не можете скачивать файлы

▼ Вниз