ML
     
  Уважаемый Гость!
Вы можете поддержать проект и зарегистрироваться у наших партнеров - онлайн-стратегия MyLands. При регистрации в игре Вы получите код, который сможете активировать после регистрации на pirat.ca и получить 1000 дублонов.

Ваш код:
500cb7bd8d2cec9a8aba647a87ce41c4b76f06bd
 
     

Титан: После гибели Земли / Titan A.E. (Дон Блут / Don Bluth, Гари Голдман / Gary Goldman, Арт Вителло / Art Vitello) [2000 г., мультфильм, фантастика, боевик, приключения, DVDRip] MVO

Ответить на тему
 
Автор
Сообщение

Пост 18-Дек-2012 01:09

[Q] 

Di VuLfi

Морской Волк

Производство: США
Режиссер: Дон Блут/Don Bluth, Гари Голдман/Gary Goldman, Арт Вителло/Art Vitello.
Жанр: мультфильм, фантастика, боевик, приключения
Год выпуска: 2000 г.
Продолжительность: 01:31:07
Мировая премьера: 13 июня 2000
Российская премьера: 22 августа 2000
Перевод: Профессиональный (многоголосый, закадровый)
Роли озвучивали: Мэтт Дэймон, Билл Пуллман, Джон Легуизамо, Натан Лейн, Джанин Гарофало, Дрю Бэрримор, Рон Перлман, Алекс Д. Линц, Тоун Лок, Джим Брюэр ...-Описание: В 3028 году Дреджи — агрессивная инопланетная раса уничтожила Землю. Пятнадцать лет спустя — юный Кейл узнает, что он владеет генетически запрограммированной картой на Титан — космический супер-корабль, в котором заключен секрет спасения человечества.
Кейлу предстоит полное опасностей путешествие через вселенную в составе команды космического корабля «Валькирия», сражения со злыми Дреджами, и восстановление Титана — последней надежды всего человечества.
КиноПоиск
IMDB
Качество видео: DVDRip
Формат видео: AVI
Видео кодек: XviD
Аудио кодек: MP3
Видео: 640x272 (2.35:1), 25.000fps, XviD build 46, ~ 1004Kbps avg, 0.23bit/pixel
Аудио: 48.0KHz, MPEG Layer 3, 2 ch, ~ 128Kbps avg
Cубтитры: отсутствуют
Полное имя : F:\Films\Titan_Posle_gibeli_zemli[pirat.ca].avi
Формат : AVI
Формат/Информация : Audio Video Interleave
Размер файла : 744 Мбайт
Продолжительность : 1 ч. 31 м.
Общий поток : 1142 Кбит/сек
Программа кодирования : VirtualDubMod 1.5.10.2 (build 2540/release)
Библиотека кодирования : VirtualDubMod build 2540/release
Видео
Идентификатор : 0
Формат : MPEG-4 Visual
Профиль формата : Advanced [email protected]
Параметр BVOP формата : 2
Параметр QPel формата : Нет
Параметр GMC формата : Без точки перехода
Параметр матрицы формата : Default (MPEG)
Идентификатор кодека : XVID
Идентификатор кодека/Подсказка : XviD
Продолжительность : 1 ч. 31 м.
Битрейт : 1004 Кбит/сек
Ширина : 640 пикселей
Высота : 272 пикселя
Соотношение сторон : 2,35:1
Частота кадров : 25,000 кадров/сек
Цветовое пространство : YUV
Субдискретизация насыщенности : 4:2:0
Битовая глубина : 8 бит
Тип развёртки : Прогрессивная
Метод сжатия : С потерями
Бит/(Пиксели*Кадры) : 0.231
Размер потока : 655 Мбайт (88%)
Библиотека кодирования : XviD 1.1.2 (UTC 2006-11-01)
Аудио
Идентификатор : 1
Формат : MPEG Audio
Версия формата : Version 1
Профиль формата : Layer 3
Режим : Joint stereo
Расширение режима : MS Stereo
Идентификатор кодека : 55
Идентификатор кодека/Подсказка : MP3
Продолжительность : 1 ч. 31 м.
Вид битрейта : Постоянный
Битрейт : 128 Кбит/сек
Каналы : 2 канала
Частота : 48,0 КГц
Метод сжатия : С потерями
Размер потока : 83,4 Мбайт (11%)
Выравнивание : Соединение по промежуткам
Продолжительность промежутка : 40 мс. (1,00 видеокадр)
Время предзагрузки промежутка : 504 мс.


Download / Скачать

Хотите скачать бесплатно? Зарегистрируйтесь на сайте (ссылка на регистрацию). Pirat.ca - самый быстрый торрент трекер в рунете!

Как скачивать  ·   Что такое торрент  ·   Рейтинг и ограничения



Последний раз редактировалось: Di VuLfi (2012-12-18 07:41), всего редактировалось 32 раз(а)

Пост 18-Дек-2012 14:39 (спустя 13 часов)

Топик был перенесен из форума Мультфильмы (Трюм) в форум Зарубежные полнометражные мультфильмы

erchine
 

Billi Bob

Корсар

558

Пост 18-Дек-2012 17:26 (спустя 16 часов)

[Q] 

Мультяк что надо, спасибо ))
[Профиль]  [ЛС] 

Di VuLfi ®

Морской Волк

27

Пост 18-Дек-2012 18:48 (спустя 1 час 21 минута)

[Q] 

Не за что!

_________________
"ничто не истенно и все дозволено"
[Профиль]  [ЛС] 

CHARLI2236

1094

Пост 02-Мар-2014 22:38 (спустя 1 год 2 месяца)

[Q] 

подключаюсь AntiZip 4

_________________
[Профиль]  [ЛС] 
Показать сообщения:    
Ответить на тему

Текущее время: Сегодня 01:51

Часовой пояс: GMT + 4



Вы не можете начинать темы
Вы не можете отвечать на сообщения
Вы не можете редактировать свои сообщения
Вы не можете удалять свои сообщения
Вы не можете голосовать в опросах
Вы не можете прикреплять файлы к сообщениям
Вы не можете скачивать файлы

▼ Вниз