ML
     
  Уважаемый Гость!
Вы можете поддержать проект и зарегистрироваться у наших партнеров - онлайн-стратегия MyLands. При регистрации в игре Вы получите код, который сможете активировать после регистрации на pirat.ca и получить 1000 дублонов.

Ваш код:
c3360d664ceb84802c84b88ed062a5d134e2ba97
 
     

Болт и Блип спешат на помощь / Bolt & Blip: Battle of the Lunar League (Питер Лепениотис, Тим Дикон / Peter Lepeniotis, Tim Deacon) [2012 г., мультфильм, фантастика, приключения, семейный, DVDRip] Dub [Лицензия]

Ответить на тему
 
Автор
Сообщение

Пост 19-Дек-2012 00:33

[Q] 

AGKRus36

-Болт и Блип спешат на помощь
Bolt & Blip: Battle of the Lunar League
-- Производство: Канада, Корея Южная
Режиссер: Питер Лепениотис, Тим Дикон / Peter Lepeniotis, Tim Deacon
Жанр: мультфильм, фантастика, приключения, семейный
Год выпуска: 2012 г.
Продолжительность: 01:13:44
Мировая премьера: 23 февраля 2012
Российская премьера: 8 ноября 2012, «Люксор»
Релиз на DVD: 11 декабря 2012, «Флагман-Трейд»
Перевод: Профессиональный (полное дублирование) (Лицензия)
Описание: 2080 год, Земля. Благодаря стараниям гениального ученого Доктора Томми на планете прекратились все войны и люди стали жить без забот! В это время на Луне роботы Болт и Блип случайно становятся членами спортивной команды «Роботы грома», которая находится на последней строчке в турнирной таблице игр Лунной Лиги. С помощью своих новых друзей Болт и Блип становятся чемпионами Лиги. Но они вдруг узнают, что Луне и Земле угрожает заклятый враг Доктора Томми — Доктор Блад. «Роботам грома» предстоит нарушить планы Доктора Блада по завоеванию вселенной и спасти Землю и Луну от уничтожения!-Сэмпл КиноПоиск
Качество видео: DVDRip
Формат видео: AVI
Видео кодек: XviD
Аудио кодек: AC3
Видео: 720x400 (1.80:1), 25 fps, XviD MPEG-4 ~2193 kbps avg, 0.30 bit/pixel
Аудио: 48 kHz, AC3 Dolby Digital, 3/2 (L,C,R,l,r) + LFE ch, ~448
Cубтитры: отсутствуют
D:\Фильмы\Болт и Блип спешат на помощь\Bolt.i.Blip.speshat.na.pomoshh.2012.D.DVDRip.avi
General
Complete name : D:\Фильмы\Болт и Блип спешат на помощь\Bolt.i.Blip.speshat.na.pomoshh.2012.D.DVDRip.avi
Format : AVI
Format/Info : Audio Video Interleave
File size : 1.37 GiB
Duration : 1h 13mn
Overall bit rate : 2 652 Kbps
Writing application : VirtualDubMod 1.5.10.2 (build 2540/release)
Original source form/Name : Anime
Video #0
ID : 0
Format : MPEG-4 Visual
Format profile : Advanced [email protected]
Format settings, BVOP : 2
Format settings, QPel : No
Format settings, GMC : No warppoints
Format settings, Matrix : Custom
Codec ID : XVID
Codec ID/Hint : XviD
Duration : 1h 13mn
Bit rate : 2 194 Kbps
Width : 720 pixels
Height : 400 pixels
Display aspect ratio : 16:9
Frame rate : 25.000 fps
Color space : YUV
Chroma subsampling : 4:2:0
Bit depth : 8 bits
Scan type : Progressive
Compression mode : Lossy
Bits/(Pixel*Frame) : 0.305
Stream size : 1.13 GiB (83%)
Writing library : XviD 64
Audio #1
ID : 1
Format : AC-3
Format/Info : Audio Coding 3
Mode extension : CM (complete main)
Format settings, Endianness : Big
Codec ID : 2000
Duration : 1h 13mn
Bit rate mode : Constant
Bit rate : 448 Kbps
Channel(s) : 6 channels
Channel positions : Front: L C R, Side: L R, LFE
Sampling rate : 48.0 KHz
Bit depth : 16 bits
Compression mode : Lossy
Stream size : 236 MiB (17%)
Alignment : Split accross interleaves
Interleave, duration : 40 ms (1.00 video frame)
Interleave, preload duration : 500 ms
Download / Скачать

Хотите скачать бесплатно? Зарегистрируйтесь на сайте (ссылка на регистрацию). Pirat.ca - самый быстрый торрент трекер в рунете!

Как скачивать  ·   Что такое торрент  ·   Рейтинг и ограничения

Пост 19-Дек-2012 01:47 (спустя 1 час 13 минут)

Топик был перенесен из форума Мультфильмы (Трюм) в форум Новинки (HD|DVD|BD|TV|SAT|PDTV| - Rips)

erchine
 

badi74

Корсар

Пост 19-Дек-2012 08:45 (спустя 8 часов)

[Q] 

[Профиль]  [ЛС] 

левка

Корсар

Пост 19-Дек-2012 18:43 (спустя 9 часов)

[Q] 

гляним!!!!
[Профиль]  [ЛС] 

Jell

Корсар

Пост 19-Дек-2012 23:06 (спустя 4 часа)

[Q] 

[Профиль]  [ЛС] 

король мерлин

Шкипер

Пост 20-Дек-2012 15:11 (спустя 16 часов)

[Q] 

скачаем заценим

_________________
Держи порох сухим, а шпагу острой!
[Профиль]  [ЛС] 

Tramp

Корсар

97

Пост 20-Дек-2012 15:18 (спустя 6 минут)

[Q] 

Ииии? Кто посмотрел? Что напоминает? Надеюсь не такое убожество типа "Как приучить зомби"? Если, как старый добрый "Роботы", то можно и самому глянуть и мелкому дать поглядеть не нарушая хрупкую психику....
[Профиль]  [ЛС] 

superkot32

Штурман

Пост 20-Дек-2012 17:01 (спустя 1 час 43 минуты)

[Q] 

Неплохой мульт. Но снят как-то своеобразно, непривычное поведения и разговоры главных героев.
[Профиль]  [ЛС] 

got70

Легенда

752

Пост 07-Янв-2013 11:54 (спустя 17 дней)

[Q] 


_________________
Добро непременно победит зло!Непременно...Затем поставит на колени,и зверски УБЬЁТ!
[Профиль]  [ЛС] 

cruzzel

Корсар

Пост 07-Янв-2013 14:23 (спустя 2 часа 28 минут)

[Q] 


_________________
NEWSLOL.NET
[Профиль]  [ЛС] 

SerJ-AC

Морской Волк

Пост 10-Янв-2013 12:45 (спустя 2 дня 22 часа)

[Q] 

[Профиль]  [ЛС] 

allabama

Лоцман

Пост 11-Янв-2013 12:41 (спустя 23 часа)

[Q] 

[Профиль]  [ЛС] 

tango07

Корсар

Пост 11-Янв-2013 13:21 (спустя 39 минут)

[Q] 

Болек и Лёлик!
[Профиль]  [ЛС] 

HellFire

Штурман

Пост 12-Янв-2013 01:20 (спустя 11 часов)

[Q] 

смотрите на ютубе на что похож этот мульт, он вышел из мультсериала и малёхо ударенный на голову(материться нельзя, использовал синонимы =/ )
[Профиль]  [ЛС] 

sba

Морской Волк

Пост 12-Янв-2013 07:56 (спустя 6 часов)

[Q] 

[Профиль]  [ЛС] 

Dontist

Шкипер

Пост 15-Янв-2013 01:30 (спустя 2 дня 17 часов)

[Q] 

[Профиль]  [ЛС] 

Aza73

Морской Волк

Пост 27-Янв-2013 12:52 (спустя 12 дней)

[Q] 

мерси!
[Профиль]  [ЛС] 

shalonina

Гроза морей

Пост 26-Авг-2014 16:55 (спустя 1 год 6 месяцев)

[Q] 

посмотрим.........................................................................

_________________
[Профиль]  [ЛС] 
Показать сообщения:    
Ответить на тему

Текущее время: Сегодня 10:06

Часовой пояс: GMT + 4



Вы не можете начинать темы
Вы не можете отвечать на сообщения
Вы не можете редактировать свои сообщения
Вы не можете удалять свои сообщения
Вы не можете голосовать в опросах
Вы не можете прикреплять файлы к сообщениям
Вы не можете скачивать файлы

▼ Вниз