ML
     
  Уважаемый Гость!
Вы можете поддержать проект и зарегистрироваться у наших партнеров - онлайн-стратегия MyLands. При регистрации в игре Вы получите код, который сможете активировать после регистрации на pirat.ca и получить 1000 дублонов.

Ваш код:
c89b4b6523eaac3173e9a9c062ac1a19db575961
 
     

Приключения Десперо / The Tale of Despereaux (Сэм Фелл / Sam Fell, Роберт Стивенхейген / Robert Stevenhagen) [2008 г., фэнтези, комедия, приключения, семейный, BDRip] (Dub)

Ответить на тему
 
Автор
Сообщение

Пост 16-Дек-2011 22:03

[Q] 

Sirota

Легенда

Приключения Десперо / The Tale of Despereaux Год выпуска: 2008
Мировая премьера: 18 декабря 2008
Российская премьера: 25 декабря 2008, «UPI»
Дата выхода DVD: 27 января 2009, «Юниверсал Пикчерс Рус»
Производство: США, Великобритания
Жанр: фэнтези, комедия, приключения, семейный
Продолжительность: 01:33:35
Перевод: профессиональный (полное дублирование) лицензия
Автор(ы) перевода: Егор Бероев, Владимир Еремин, Евгения Белобородова, Мария Иващенко, Никита Прозоровский
Режиссер: Сэм Фелл / Sam Fell, Роберт Стивенхейген / Robert Stevenhagen
В ролях: Мэттью Бродерик
Дастин Хоффман
Эмма Уотсон
Трейси Уллмен
Кевин Клайн
Уильям Х. Мэйси
Стенли Туччи
Кьяран Хайндс
Робби Колтрейн
Тони Хейл
Описание: Это история о трёх существах, менее всего подходящих на роли героев — Мыши, предпочитающей читать книги, вместо того, чтобы есть их; Крысы, плетущей интриги ради того, чтобы навсегда покинуть сырую темницу; и лопоухой девочки — чьи судьбы переплетаются с неисповедимыми путями Принцессы.
Доп. информация: сценарий Гэри Росс, Кейт Дикамилло, Уилл МакРобб,
продюсер Эллисон Томас, Гэри Росс, Робин Бисселл,
оператор Брэд Блэкборн
композитор Уильям Росс
художник Евгений Томов, Оливье Адам
монтаж Марк Соломон
IMDB, КиноПоиск
Источник/Качество: BDRip (источник: / Blu-ray Remux / 1080p)
Формат: AVI
Видео кодек: XviD
Аудио кодек: AC3
Видео: 720x304 (2.37:1), 23.976 fps, XviD build 57 ~1826 kbps avg, 0.35 bit/pixel
Аудио: 48 kHz, AC3 Dolby Digital, 3/2 (L,C,R,l,r) + LFE ch, ~384.00 kbps avg
Субтитры: нет
General
Format : AVI
Format/Info : Audio Video Interleave
File size : 1.45 GiB
Duration : 1h 33mn
Overall bit rate : 2 219 Kbps
Movie name : Priklyucheniya.Despero.2008.RUS.BDRip.XviD.AC3.
Director : kingsize87
Writing application : VirtualDubMod 1.5.10.2 (build 2542/release)
Comment : 13.01.2011
Video #0
ID : 0
Format : MPEG-4 Visual
Format profile : [email protected]
Format settings, BVOP : Yes
Format settings, QPel : No
Format settings, GMC : No warppoints
Format settings, Matrix : Custom
Codec ID : XVID
Codec ID/Hint : XviD
Duration : 1h 33mn
Bit rate : 1 826 Kbps
Width : 720 pixels
Height : 304 pixels
Display aspect ratio : 2.35:1
Frame rate : 23.976 fps
Resolution : 24 bits
Colorimetry : 4:2:0
Scan type : Progressive
Bits/(Pixel*Frame) : 0.348
Stream size : 1.19 GiB (82%)
Writing library : XviD 57
Audio #1
ID : 1
Format : AC-3
Format/Info : Audio Coding 3
Codec ID : 2000
Duration : 1h 33mn
Bit rate mode : Constant
Bit rate : 384 Kbps
Channel(s) : 6 channels
Channel positions : Front: L C R, Surround: L R, LFE
Sampling rate : 48.0 KHz
Stream size : 257 MiB (17%)
Alignment : Split accross interleaves
Interleave, duration : 42 ms (1.00 video frame)
Interleave, preload duration : 500 ms
-
-Релиз подготовлен:

-
-
Download / Скачать

Хотите скачать бесплатно? Зарегистрируйтесь на сайте (ссылка на регистрацию). Pirat.ca - самый быстрый торрент трекер в рунете!

Как скачивать  ·   Что такое торрент  ·   Рейтинг и ограничения

Пост 17-Дек-2011 05:54 (спустя 7 часов)

Топик был перенесен из форума Мультипликация в форум Зарубежные полнометражные мультфильмы

zyyx
 

Vlad__treker

Морской Волк

184

Пост 22-Дек-2011 23:57 (спустя 6 дней)

[Q] 

Sirota, спасибо за мультяшки!

_________________
...:::Pirat.ca:::...
..:::The Best:::...
[Профиль]  [ЛС] 

lo.oktosky

Морской Волк

Пост 06-Янв-2012 06:59 (спустя 14 дней)

[Q] 

спасибо co co co
прямо-таки сказочный мультфильм
правда пережат уж очень...
[Профиль]  [ЛС] 

CHARLI2236

1098

Пост 30-Окт-2012 13:25 (спустя 9 месяцев 24 дня)

[Q] 

спс

_________________
[Профиль]  [ЛС] 

Clean_OK

Пост 09-Янв-2016 23:05 (спустя 3 года 2 месяца)

[Q] 

Супер!

_________________
[Профиль]  [ЛС] 
Показать сообщения:    
Ответить на тему

Текущее время: Сегодня 22:33

Часовой пояс: GMT + 4



Вы не можете начинать темы
Вы не можете отвечать на сообщения
Вы не можете редактировать свои сообщения
Вы не можете удалять свои сообщения
Вы не можете голосовать в опросах
Вы не можете прикреплять файлы к сообщениям
Вы не можете скачивать файлы

▼ Вниз