ML
     
  Уважаемый Гость!
Вы можете поддержать проект и зарегистрироваться у наших партнеров - онлайн-стратегия MyLands. При регистрации в игре Вы получите код, который сможете активировать после регистрации на pirat.ca и получить 1000 дублонов.

Ваш код:
5f4e94775bc0501caff7b254e79328d304c817d9
 
     

Гроза муравьев / The Ant Bully (Джон Э. Дэвис / John A. Davis) [2006 г., фэнтези, комедия, приключения, семейный, HDRip] (Dub)

Ответить на тему
 
Автор
Сообщение

Пост 16-Дек-2011 22:36

[Q] 

Sirota

Легенда

Гроза муравьев / The Ant Bully Год выпуска: 2006
Мировая премьера: 28 июля 2006
Российская премьера: 5 октября 2006, «Каро-Премьер»
Дата выхода DVD: 12 мая 2009, «Юниверсал Пикчерс Рус»
Производство: США
Жанр: фэнтези, комедия, приключения, семейный
Продолжительность: 01:29:03
Перевод: профессиональный (полное дублирование) лицензия
Автор(ы) перевода: Екатерина Гусева, Николай Фоменко, Лариса Лужина, Александр Домогаров, Эммануил Виторган
Режиссер: Джон Э. Дэвис / John A. Davis
В ролях: Джулия Робертс
Николас Кейдж
Мэрил Стрип
Пол Джаматти
Зэк Тайлер
Реджина Кинг
Брюс Кэмпбелл
Лили Томлин
Шери Отери
Ларри Миллер
Описание: Несчастный 10-летний Лукас Никль никак не может устроиться на новом месте. Недавно переехав с семьёй в новый город он до сих пор не нашёл ни одного друга. К тому же его родители, уделяют ему слишком мало внимания, а от сестры-подростка Тиффани можно ждать одних только неприятностей. Но хуже всего, что Лукас стал главной мишенью местного задиры Стива, который не упускает ни малейшей возможности поиздеваться над ним. В ответ на это Лукас находит себе развлечение в разрушении муравейников на заднем дворе своего дома, выплёскивая свою досаду на беззащитные холмики земли и их ни в чём не повинных обитателей.
Но он и не догадывается, что прямо под его ногами живёт, находящийся в постоянном движении, целый мир, и то, что ему кажется всего лишь «кучкой маленьких муравьёв» на самом деле целое общество с именами и родством, ответственностью и эмоциями. Терпение муравьёв от постоянного топтания их домов
Лукасом-Разрушителем истощается, и они готовы нанести ответный удар.
Волшебное зелье, над которым Муравей Волшебник Зок долго работал, наконец-то завершено. Одна его капля в ухо Лукаса и он мгновенно уменьшается до размеров муравья, после чего он принудительно доставляется на суд в самую глубину муравейника. Глава Совета муравьёв объявляет Лукаса виновным в преступлениях против колонии, и мудрая Королева муравьёв приговаривает его к жизни среди муравьёв. Так Лукас попадает в необыкновенный мир, неожиданно для него наполненный жизнью и опасностями, которые он не мог даже вообразить до этого, и отправляется в то, что станет для него приключением всей его жизни.
Доп. информация: сценарий Джон А. Дэвис, Джон Никл
продюсер Джон А. Дэвис, Гари Гоэцман, Том Хэнкс,
оператор Кен Митчрони
композитор Джон Дебни
художник Бэрри Е. Джексон, Крис Консани
монтаж Джон Прайс
бюджет $50 000 000
сборы в США $28 142 535
сборы в мире + $27 038 594 = $55 181 129

IMDB, КиноПоиск
Источник/Качество: HDRip
Формат: AVI
Видео кодек: XviD
Аудио кодек: MP3
Видео: 688x384 (1.79:1), 23.976 fps, XviD build 47 ~1035 kbps avg, 0.16 bit/pixel
Аудио: 48 kHz, MPEG Layer 3, 2 ch, ~128.00 kbps avg
Субтитры: нет
General
Format : AVI
Format/Info : Audio Video Interleave
File size : 747 MiB
Duration : 1h 29mn
Overall bit rate : 1 173 Kbps
Writing application : VirtualDubMod 1.5.10.2 (build 2540/release)
Writing library : VirtualDubMod build 2540/release
Video #0
ID : 0
Format : MPEG-4 Visual
Format profile : [email protected]
Format settings, BVOP : Yes
Format settings, QPel : No
Format settings, GMC : No warppoints
Format settings, Matrix : Default (MPEG)
Codec ID : XVID
Codec ID/Hint : XviD
Duration : 1h 29mn
Bit rate : 1 036 Kbps
Width : 688 pixels
Height : 384 pixels
Display aspect ratio : 16:9
Frame rate : 23.976 fps
Resolution : 24 bits
Colorimetry : 4:2:0
Scan type : Progressive
Bits/(Pixel*Frame) : 0.163
Stream size : 660 MiB (88%)
Writing library : XviD 1.2.0.dev47 (UTC 2006-11-01)
Audio #1
ID : 1
Format : MPEG Audio
Format version : Version 1
Format profile : Layer 3
Codec ID : 55
Codec ID/Hint : MP3
Duration : 1h 29mn
Bit rate mode : Constant
Bit rate : 128 Kbps
Channel(s) : 2 channels
Sampling rate : 48.0 KHz
Resolution : 16 bits
Stream size : 81.5 MiB (11%)
Alignment : Aligned on interleaves
Interleave, duration : 42 ms (1.00 video frame)
Interleave, preload duration : 504 ms
Writing library : LAME3.97
Encoding settings : -m s -V 4 -q 2 -lowpass 17 -b 128
-
-Релиз подготовлен:

-
-
Download / Скачать

Хотите скачать бесплатно? Зарегистрируйтесь на сайте (ссылка на регистрацию). Pirat.ca - самый быстрый торрент трекер в рунете!

Как скачивать  ·   Что такое торрент  ·   Рейтинг и ограничения

Пост 17-Дек-2011 05:54 (спустя 7 часов)

Топик был перенесен из форума Мультипликация в форум Зарубежные полнометражные мультфильмы

zyyx
 

JahAnt

Штурман

Пост 22-Дек-2011 15:10 (спустя 5 дней)

[Q] 

Интересный мульт,дочка оценила!спасибо

_________________
Нас невозможно сбить с пути! Нам по бую куда идти
[Профиль]  [ЛС] 

Chefirok

Штурман

Пост 10-Июн-2012 12:56 (спустя 5 месяцев 18 дней)

[Q] 

чик

_________________
Из мира в землю
[Профиль]  [ЛС] 

CHARLI2236

1089

Пост 30-Окт-2012 13:01 (спустя 4 месяца 20 дней)

[Q] 

благодарю

_________________
[Профиль]  [ЛС] 
Показать сообщения:    
Ответить на тему

Текущее время: Сегодня 15:37

Часовой пояс: GMT + 4



Вы не можете начинать темы
Вы не можете отвечать на сообщения
Вы не можете редактировать свои сообщения
Вы не можете удалять свои сообщения
Вы не можете голосовать в опросах
Вы не можете прикреплять файлы к сообщениям
Вы не можете скачивать файлы

▼ Вниз