ML
     
  Уважаемый Гость!
Вы можете поддержать проект и зарегистрироваться у наших партнеров - онлайн-стратегия MyLands. При регистрации в игре Вы получите код, который сможете активировать после регистрации на pirat.ca и получить 1000 дублонов.

Ваш код:
5af7de75d3db09b6a37bc8bab71b0e87ccde73d6
 
     

Каена: Пророчество / Kaena: La prophetie (Крис Делапорте, Паскаль Пинон / Chris Delaporte, Pascal Pinon) [2003 г., фэнтези, боевик, приключения, семейный] (MVO)

Ответить на тему
 
Автор
Сообщение

Пост 16-Дек-2011 23:03

[Q] 

Sirota

Легенда

Каена: Пророчество / Kaena: La prophetie Год выпуска: 2003
Мировая премьера: 4 июня 2003
Производство: Канада Франция
Жанр: фэнтези, боевик, приключения, семейный
Продолжительность: 01:27:24
Перевод: профессиональный (многоголосый, закадровый)
Режиссер: Крис Делапорте, Паскаль Пинон / Chris Delaporte, Pascal Pinon
В ролях: Сесиль Де Франс
Микаэль Лонсдаль
Виктория Абриль
Франсуа Сьенер
Жан-Мишель Фарси
Рэймонд Аквавива
Жан Пиа
Кирстен Данст
Ричард Харрис
Анжелика Хьюстон
Описание: На вершине Аксиса, огромного вертикального мира, где-то за облаками находится деревня Каены. Никто из жителей не покидал ее пределов. Но девушка считает, что рядом есть еще миры и что сама она другая! Бунтарский дух влечет Каену в неизведанное. Наперекор табу Великого Жреца она пускается в отчаянный поход. И попадает в странный мир с невиданными существами!.. Ей суждено проникнуть в тайну, которой много сотен лет!
Доп. информация: сценарий Tarik Hamdine, Бенжамин Легран, Кеннет Оппель,
композитор Farid Russlan
монтаж Бенедикт Брунет
IMDB, КиноПоиск
Источник/Качество: DVDRip
Формат: AVI
Видео кодек: XviD
Аудио кодек: AC3
Видео: 720x384 (1.88:1), 25 fps, XviD build 63 ~1927 kbps avg, 0.28 bit/pixel
Аудио: 48 kHz, AC3 Dolby Digital, 3/2 (L,C,R,l,r) + LFE ch, ~448.00 kbps avg
Субтитры: нет
General
Format : AVI
Format/Info : Audio Video Interleave
File size : 1.46 GiB
Duration : 1h 27mn
Overall bit rate : 2 385 Kbps
Writing application : VirtualDubMod 1.5.10.3 (build 2550/release)
Writing library : VirtualDubMod build 2550/release
Video #0
ID : 0
Format : MPEG-4 Visual
Format profile : [email protected]
Format settings, BVOP : Yes
Format settings, QPel : No
Format settings, GMC : No warppoints
Format settings, Matrix : Custom
Codec ID : XVID
Codec ID/Hint : XviD
Duration : 1h 27mn
Bit rate : 1 928 Kbps
Width : 720 pixels
Height : 384 pixels
Display aspect ratio : 1.875
Frame rate : 25.000 fps
Resolution : 24 bits
Colorimetry : 4:2:0
Scan type : Progressive
Bits/(Pixel*Frame) : 0.279
Stream size : 1.18 GiB (81%)
Writing library : XviD 63
Audio #1
ID : 1
Format : AC-3
Format/Info : Audio Coding 3
Codec ID : 2000
Duration : 1h 27mn
Bit rate mode : Constant
Bit rate : 448 Kbps
Channel(s) : 6 channels
Channel positions : Front: L C R, Surround: L R, LFE
Sampling rate : 48.0 KHz
Stream size : 280 MiB (19%)
Alignment : Split accross interleaves
Interleave, duration : 40 ms (1.00 video frame)
Interleave, preload duration : 500 ms
Download / Скачать

Хотите скачать бесплатно? Зарегистрируйтесь на сайте (ссылка на регистрацию). Pirat.ca - самый быстрый торрент трекер в рунете!

Как скачивать  ·   Что такое торрент  ·   Рейтинг и ограничения

Пост 17-Дек-2011 05:54 (спустя 6 часов)

Топик был перенесен из форума Мультипликация в форум Зарубежные полнометражные мультфильмы

zyyx
 

CHARLI2236

1090

Пост 30-Окт-2012 13:08 (спустя 10 месяцев 13 дней)

[Q] 

спасибо

_________________
[Профиль]  [ЛС] 

Lord_Anael

Лоцман

Пост 12-Ноя-2012 18:25 (спустя 13 дней)

[Q] 

включите раздачу..
[Профиль]  [ЛС] 

Lord_Anael

Лоцман

Пост 12-Ноя-2012 20:39 (спустя 2 часа 14 минут)

[Q] 

спасибо . классный мульт.
[Профиль]  [ЛС] 

vgs75rus

Лоцман

Пост 03-Янв-2013 15:28 (спустя 1 месяц 20 дней)

[Q] 

не качается
[Профиль]  [ЛС] 
Показать сообщения:    
Ответить на тему

Текущее время: Сегодня 14:10

Часовой пояс: GMT + 4



Вы не можете начинать темы
Вы не можете отвечать на сообщения
Вы не можете редактировать свои сообщения
Вы не можете удалять свои сообщения
Вы не можете голосовать в опросах
Вы не можете прикреплять файлы к сообщениям
Вы не можете скачивать файлы

▼ Вниз