ML
     
  Уважаемый Гость!
Вы можете поддержать проект и зарегистрироваться у наших партнеров - онлайн-стратегия MyLands. При регистрации в игре Вы получите код, который сможете активировать после регистрации на pirat.ca и получить 1000 дублонов.

Ваш код:
c3360d664ceb84802c84b88ed062a5d134e2ba97
 
     

Том и Джерри и Волшебник из страны Оз / Tom and Jerry & The Wizard of Oz (Спайк Брандт / Spike Brandt) [2011 г., приключения, комедия, семейный, HDRip] (Dub)

Ответить на тему
 
Автор
Сообщение

Пост 16-Дек-2011 23:34

[Q] 

Sirota

Легенда

Том и Джерри и Волшебник из страны Оз / Tom and Jerry & The Wizard of Oz Год выпуска: 2011
Мировая премьера: 13 августа 2011
Дата выхода DVD: 8 сентября 2011, «CP-Digital»
Производство: США
Жанр: приключения, комедия, семейный
Продолжительность: 00:59:08
Перевод: профессиональный (полное дублирование) лицензия
Режиссер: Спайк Брандт / Spike Brandt
В ролях: Грей ДеЛайл
Джо Аляски
Майкл Гоф
Роб Полсен
Тодд Стэшвик
Фрэнсис Конрой
Лорейн Ньюмен
Стивен Рут
Stephen Root
Кэт Сауси
Описание: Том и Джерри парят над радугой и двигаются вниз по дороге из желтого кирпича и на пути им встречаются всем знакомые анимированные персонажи и пересказ классической истории.
Доп. информация: сценарий Джин Грилло
продюсер Джадж Пламмер
художник Эрик Семонес
монтаж Кайл Стэффорд, Damon P. Yoches
Сэмпл, IMDB, КиноПоиск
Источник/Качество: HDRip исходник: [BDRip 720p]
Формат: AVI
Видео кодек: XviD
Аудио кодек: MP3
Видео: 656x368 (1.78:1), 23.976 fps, XviD build 64 ~1617 kbps avg, 0.28 bit/pixel
Аудио: 48 kHz, MPEG Layer 3, 2 ch, ~128.00 kbps avg
Субтитры: нет
General
Format : AVI
Format/Info : Audio Video Interleave
File size : 743 MiB
Duration : 59mn 12s
Overall bit rate : 1 755 Kbps
Writing application : VirtualDubMod 1.5.10.3 (build 2550/release)
Writing library : VirtualDubMod build 2550/release
Video #0
ID : 0
Format : MPEG-4 Visual
Format profile : [email protected]
Format settings, BVOP : Yes
Format settings, QPel : No
Format settings, GMC : No warppoints
Format settings, Matrix : Custom
Codec ID : XVID
Codec ID/Hint : XviD
Duration : 59mn 12s
Bit rate : 1 618 Kbps
Width : 656 pixels
Height : 368 pixels
Display aspect ratio : 16:9
Frame rate : 23.976 fps
Resolution : 24 bits
Colorimetry : 4:2:0
Scan type : Progressive
Bits/(Pixel*Frame) : 0.279
Stream size : 685 MiB (92%)
Writing library : XviD 64
Audio #1
ID : 1
Format : MPEG Audio
Format version : Version 1
Format profile : Layer 3
Codec ID : 55
Codec ID/Hint : MP3
Duration : 59mn 12s
Bit rate mode : Constant
Bit rate : 128 Kbps
Channel(s) : 2 channels
Sampling rate : 48.0 KHz
Resolution : 16 bits
Stream size : 54.2 MiB (7%)
Alignment : Aligned on interleaves
Interleave, duration : 42 ms (1.00 video frame)
Interleave, preload duration : 504 ms
Writing library : LAME3.98r
Encoding settings : -m s -V 4 -q 2 -lowpass 17 -b 128
Download / Скачать

Хотите скачать бесплатно? Зарегистрируйтесь на сайте (ссылка на регистрацию). Pirat.ca - самый быстрый торрент трекер в рунете!

Как скачивать  ·   Что такое торрент  ·   Рейтинг и ограничения

Пост 17-Дек-2011 05:54 (спустя 6 часов)

Топик был перенесен из форума Мультипликация в форум Зарубежные полнометражные мультфильмы

zyyx
 

OlegSh

Морской Волк

Пост 26-Дек-2011 14:59 (спустя 9 дней)

[Q] 

интересный мульт
[Профиль]  [ЛС] 

CHARLI2236

1098

Пост 30-Окт-2012 13:37 (спустя 10 месяцев 3 дня)

[Q] 

спасибо

_________________
[Профиль]  [ЛС] 

Di VuLfi

Морской Волк

27

Пост 22-Дек-2012 02:32 (спустя 1 месяц 22 дня)

[Q] 


_________________
"ничто не истенно и все дозволено"
[Профиль]  [ЛС] 

GuT_SpIt

Шкипер

Пост 27-Дек-2012 23:59 (спустя 5 дней)

[Q] 

[Профиль]  [ЛС] 

дмитрий1987@mail.ru

Морской Волк

Пост 11-Июн-2014 09:52 (спустя 1 год 5 месяцев)

[Q] 

Автору респект!!! Лови бочку спасибо
[Профиль]  [ЛС] 
Показать сообщения:    
Ответить на тему

Текущее время: Сегодня 10:08

Часовой пояс: GMT + 4



Вы не можете начинать темы
Вы не можете отвечать на сообщения
Вы не можете редактировать свои сообщения
Вы не можете удалять свои сообщения
Вы не можете голосовать в опросах
Вы не можете прикреплять файлы к сообщениям
Вы не можете скачивать файлы

▼ Вниз