ML
     
  Уважаемый Гость!
Вы можете поддержать проект и зарегистрироваться у наших партнеров - онлайн-стратегия MyLands. При регистрации в игре Вы получите код, который сможете активировать после регистрации на pirat.ca и получить 1000 дублонов.

Ваш код:
c89b4b6523eaac3173e9a9c062ac1a19db575961
 
     

Цыпленок Цыпа / Chicken Little (Марк Диндал / Mark Dindal) [2005 г., фантастика, комедия, приключения, семейный, HDRip] (Dub)

Ответить на тему
 
Автор
Сообщение

Пост 17-Дек-2011 00:04

[Q] 

Sirota

Легенда

Цыпленок Цыпа / Chicken Little Год выпуска: 2005
Мировая премьера: 30 октября 2005
Российская премьера: 3 ноября 2005, «Каскад»
Дата выхода DVD: 6 июля 2010, «Уолт Дисней Компани СНГ»
Производство: США, Walt Disney Pictures
Жанр: фантастика, комедия, приключения, семейный
Продолжительность: 01:20:54
Перевод: профессиональный (полное дублирование)
Автор(ы) перевода: Сергей Уманов, Адриан Ростовский, Валерий Кухарешин, Валерий Никитенко, Ксения Бржезовская
Режиссер: Марк Диндал / Mark Dindal
В ролях: Зак Брафф
Гэрри Маршалл
Дон Ноттс
Патрик Стюарт
Эми Седарис
Стив Зан
Джоан Кьюсак
Уоллес Шоун
Гарри Ширер
Фред Уиллард
Описание: В основе фильма лежит старая басня про цыпленка, который вопил о том, что небеса падают на землю каждый раз, когда ему на голову падал желудь. Вот уже год, как Цыпленок пытается преодолеть позор своей ошибки (про падающие небеса) и жить как ни в чем не бывало.
Но — увы! — желающих дружить с неудачником немного, и поэтому в товарищах у него ходят такие же изгои, как и он сам. Но однажды действительно случается несчастье — пора бить тревогу! Но кто поверит Цыпленку, ведь он уже опростоволосился однажды…
Теперь будущее планеты зависит от скромных бойцов невидимого фронта: свиненка-акселерата, убогонькой уточки, золотой рыбки-мутанта и Цыпленка, с которым никто не хочет знаться…
Доп. информация: сценарий Дэвид Рейнольдс, Сандра Цинг Ло, Стив Бенчич,
продюсер Питер Дел Вечо, Рэнди Фуллмер
композитор Джон Дебни
художник Дэвид Вомерсли, Дэн Купер, Йен Гудинг
монтаж Дэн Молина
бюджет $150 000 000
сборы в США $135 386 665
сборы в мире + $179 046 000 = $314 432 665
сборы в России $2 411 140
DVD в США $119 602 726

IMDB, КиноПоиск
Источник/Качество: HDRip
Формат: AVI
Видео кодек: XviD
Аудио кодек: AC3
Видео: 720x400 (1.80:1), 23.976 fps, XviD build 50 ~1991 kbps avg, 0.29 bit/pixel
Аудио: Rus 48 kHz, AC3 Dolby Digital, 3/2 (L,C,R,l,r) + LFE ch, ~384.00 kbps avg
Аудио #2: Eng 48 kHz, AC3 Dolby Digital, 2/0 (L,R) ch, ~192.00 kbps avg
Субтитры: нет
General
Format : AVI
Format/Info : Audio Video Interleave
File size : 1.46 GiB
Duration : 1h 20mn
Overall bit rate : 2 582 Kbps
Movie name : Цыпленок Цыпа / Chicken Little (2005)
Director : SENATOR (BDRip 1080)
Writing application : VirtualDubMod 1.5.10.2 (build 2540/release)
Copyright : HQ-ViDEO (www.hq-video.ru)
Comment : 20.04.2009
Video #0
ID : 0
Format : MPEG-4 Visual
Format profile : [email protected]
Format settings, BVOP : Yes
Format settings, QPel : No
Format settings, GMC : No warppoints
Format settings, Matrix : Default (MPEG)
Codec ID : XVID
Codec ID/Hint : XviD
Duration : 1h 20mn
Bit rate : 1 992 Kbps
Width : 720 pixels
Height : 400 pixels
Display aspect ratio : 16:9
Frame rate : 23.976 fps
Resolution : 24 bits
Colorimetry : 4:2:0
Scan type : Progressive
Bits/(Pixel*Frame) : 0.289
Stream size : 1.13 GiB (77%)
Writing library : XviD 1.2.1 (UTC 2008-12-04)
Audio #1
ID : 1
Format : AC-3
Format/Info : Audio Coding 3
Codec ID : 2000
Duration : 1h 20mn
Bit rate mode : Constant
Bit rate : 384 Kbps
Channel(s) : 6 channels
Channel positions : Front: L C R, Surround: L R, LFE
Sampling rate : 48.0 KHz
Stream size : 222 MiB (15%)
Alignment : Split accross interleaves
Interleave, duration : 42 ms (1.00 video frame)
Interleave, preload duration : 500 ms
Audio #2
ID : 2
Format : AC-3
Format/Info : Audio Coding 3
Codec ID : 2000
Duration : 1h 20mn
Bit rate mode : Constant
Bit rate : 192 Kbps
Channel(s) : 2 channels
Channel positions : L R
Sampling rate : 48.0 KHz
Stream size : 111 MiB (7%)
Alignment : Split accross interleaves
Interleave, duration : 42 ms (1.00 video frame)
Interleave, preload duration : 500 ms
Download / Скачать

Хотите скачать бесплатно? Зарегистрируйтесь на сайте (ссылка на регистрацию). Pirat.ca - самый быстрый торрент трекер в рунете!

Как скачивать  ·   Что такое торрент  ·   Рейтинг и ограничения

Пост 17-Дек-2011 05:54 (спустя 5 часов)

Топик был перенесен из форума Мультипликация в форум Зарубежные полнометражные мультфильмы

zyyx
 

Vlad__treker

Морской Волк

184

Пост 23-Дек-2011 00:00 (спустя 5 дней)

[Q] 

Sirota, спасибо,круто!

_________________
...:::Pirat.ca:::...
..:::The Best:::...
[Профиль]  [ЛС] 

berezeca

Корсар

Пост 14-Янв-2012 11:48 (спустя 22 дня)

[Q] 

спасибо
[Профиль]  [ЛС] 

rezjus

Корсар

Пост 26-Фев-2012 18:53 (спустя 1 месяц 12 дней)

[Q] 

Большое спасибо.
[Профиль]  [ЛС] 

CHARLI2236

1098

Пост 30-Окт-2012 13:43 (спустя 8 месяцев 3 дня)

[Q] 

спасибо

_________________
[Профиль]  [ЛС] 

OKSANASHUBINA

Юнга

Пост 01-Мар-2013 21:31 (спустя 4 месяца 2 дня)

[Q] 

спасибо.
[Профиль]  [ЛС] 

flaik

Штурман

Пост 01-Авг-2013 03:57 (спустя 4 месяца 30 дней)

[Q] 

Спасибо!!!
[Профиль]  [ЛС] 
Показать сообщения:    
Ответить на тему

Текущее время: Сегодня 22:33

Часовой пояс: GMT + 4



Вы не можете начинать темы
Вы не можете отвечать на сообщения
Вы не можете редактировать свои сообщения
Вы не можете удалять свои сообщения
Вы не можете голосовать в опросах
Вы не можете прикреплять файлы к сообщениям
Вы не можете скачивать файлы

▼ Вниз