ML
     
  Уважаемый Гость!
Вы можете поддержать проект и зарегистрироваться у наших партнеров - онлайн-стратегия MyLands. При регистрации в игре Вы получите код, который сможете активировать после регистрации на pirat.ca и получить 1000 дублонов.

Ваш код:
e93cd9e43017f251127f220889864c05934e61c6
 
     

Приключения Санта Клауса / The Life & Adventures of Santa Claus (Глен Хилл / Glen Hill) [2000 г., мультфильм, фэнтези, семейный, DVDRip] Dub + Original (Eng)

Ответить на тему
 
Автор
Сообщение

Пост 28-Дек-2012 17:33

[Q] 

Jigsaw

 
-Приключения Санта Клауса
The Life & Adventures of Santa Claus
«Based on the book by L. Frank Baum the author of 'The Wonderful Wizard of OZ'»
-- Производство: США
Режиссер: Глен Хилл / Glen Hill
Жанр: мультфильм, фэнтези, семейный
Год выпуска: 2000 г.
Продолжительность: 01:12:52
Мировая премьера: 31 октября 2000
Перевод: Профессиональный (полное дублирование)
Оригинальный аудиопоток: английский
Роли озвучивали: Робби Бенсон, Дикси Картер, Хэл Холбрук, Карлос Alazraqui, Джим Каммингс, Мэри Кэй Бергман, Мелисса Дисней, Джесс Харнелл, Ник Джеймисон, Морис LaMarche, Brianne Siddall, Синтия Songe-Описание: В волшебном лесу Берзее нашли и вырастили человеческого детеныша. Юного Николаса, единственного человека, когда-либо попадавшего в этот лес, вскоре ждут приключения, навсегда изменившие жизнь детей! Эта волшебная сказка раскроет вам секреты Рождества. Вы узнаете многое. Почему северный олень везет сани? Как Санта Клаусу удается сделать сразу все рождественские игрушки? История от автора "Волшебника страны Оз" посвящена самому любимому празднику и детей и взрослых.- Качество видео: DVDRip
Формат видео: AVI
Видео кодек: XviD
Аудио кодек: AC3
Видео: MPEG4, XviD, 720x544 (4:3), 25.000 fps, 2238 Kbps (0.218 bit/pixel)
Аудио: Rus: AC-3, 48.0 KHz, 2 ch, 224 Kbps, CBR
Аудио #2: Eng: AC-3, 48.0 KHz, 2 ch, 224 Kbps, CBR
Cубтитры: отсутствуют
Общее
Полное имя : D:\Priklyacheniya.santa.klausa.DVDRip.avi
Формат : AVI
Формат/Информация : Audio Video Interleave
Размер файла : 1,37 Гбайт
Продолжительность : 1 ч. 12 м.
Общий поток : 2700 Кбит/сек
Программа кодирования : VirtualDubMod 1.5.10.2 (build 2540/release)
Библиотека кодирования : VirtualDubMod build 2540/release
Видео
Идентификатор : 0
Формат : MPEG-4 Visual
Профиль формата : Advanced [email protected]
Параметр BVOP формата : 3
Параметр QPel формата : Нет
Параметр GMC формата : Без точки перехода
Параметр матрицы формата : Default (H.263)
Идентификатор кодека : XVID
Идентификатор кодека/Подсказка : XviD
Продолжительность : 1 ч. 12 м.
Битрейт : 2238 Кбит/сек
Ширина : 720 пикселей
Высота : 544 пикселя
Соотношение сторон : 4:3
Частота кадров : 25,000 кадров/сек
Цветовое пространство : YUV
Субдискретизация насыщенности : 4:2:0
Битовая глубина : 8 бит
Тип развёртки : Прогрессивная
Метод сжатия : С потерями
Бит/(Пиксели*Кадры) : 0.229
Размер потока : 1,14 Гбайт (83%)
Библиотека кодирования : XviD 1.2.1 (UTC 2008-12-04)
Аудио #1
Идентификатор : 1
Формат : AC-3
Формат/Информация : Audio Coding 3
Расширение режима : CM (complete main)
Параметр Endianness формата : Big
Идентификатор кодека : 2000
Продолжительность : 1 ч. 12 м.
Вид битрейта : Постоянный
Битрейт : 224 Кбит/сек
Каналы : 2 канала
Расположение каналов : Front: L R
Частота : 48,0 КГц
Битовая глубина : 16 бит
Метод сжатия : С потерями
Размер потока : 117 Мбайт (8%)
Выравнивание : Разделение по промежуткам
Продолжительность промежутка : 40 мс. (1,00 видеокадр)
Время предзагрузки промежутка : 500 мс.
Аудио #2
Идентификатор : 2
Формат : AC-3
Формат/Информация : Audio Coding 3
Расширение режима : CM (complete main)
Параметр Endianness формата : Big
Идентификатор кодека : 2000
Продолжительность : 1 ч. 12 м.
Вид битрейта : Постоянный
Битрейт : 224 Кбит/сек
Каналы : 2 канала
Расположение каналов : Front: L R
Частота : 48,0 КГц
Битовая глубина : 16 бит
Метод сжатия : С потерями
Размер потока : 117 Мбайт (8%)
Выравнивание : Разделение по промежуткам
Продолжительность промежутка : 40 мс. (1,00 видеокадр)
Время предзагрузки промежутка : 500 мс.
Download / Скачать

Хотите скачать бесплатно? Зарегистрируйтесь на сайте (ссылка на регистрацию). Pirat.ca - самый быстрый торрент трекер в рунете!

Как скачивать  ·   Что такое торрент  ·   Рейтинг и ограничения

Пост 28-Дек-2012 18:13 (спустя 40 минут)

Топик был перенесен из форума Мультфильмы (Трюм) в форум Зарубежные полнометражные мультфильмы

erchine
 

CHARLI2236

1089

Пост 12-Мар-2014 23:14 (спустя 1 год 2 месяца)

[Q] 

подключусь AntiZip 02

_________________
[Профиль]  [ЛС] 
Показать сообщения:    
Ответить на тему

Текущее время: Сегодня 04:30

Часовой пояс: GMT + 4



Вы не можете начинать темы
Вы не можете отвечать на сообщения
Вы не можете редактировать свои сообщения
Вы не можете удалять свои сообщения
Вы не можете голосовать в опросах
Вы не можете прикреплять файлы к сообщениям
Вы не можете скачивать файлы

▼ Вниз