ML
     
  Уважаемый Гость!
Вы можете поддержать проект и зарегистрироваться у наших партнеров - онлайн-стратегия MyLands. При регистрации в игре Вы получите код, который сможете активировать после регистрации на pirat.ca и получить 1000 дублонов.

Ваш код:
47bfc18b89c74e4ae0d974e9b6943639e2bff08e
 
     

Олененок Рудольф / Rudolph the Red-Nosed Reindeer: The Movie (Вильям Ковальчук / William R. Kowalchuk Jr.) [1998 г., мелодрама, мюзикл, приключения, семейный, мультфильм, DVDRip] Dub

Ответить на тему
 
Автор
Сообщение

Пост 28-Дек-2012 17:49

[Q] 

Jigsaw

 
-Олененок Рудольф
Rudolph the Red-Nosed Reindeer: The Movie
-- Производство: США
Режиссер: Вильям Ковальчук / William R. Kowalchuk Jr.
Жанр: мелодрама, мюзикл, приключения, семейный, мультфильм
Год выпуска: 1998 г.
Продолжительность: 01:19:51
Мировая премьера: 16 октября 1998
Перевод: Профессиональный (полное дублирование)
Роли озвучивали: Эрик Поспишил, Кэтлин Барр, Джон Гудман, Вупи Голдберг, Дебби Рейнолдс, Боб Ньюхарт, Эрик Айдл, Ричард Симмонс, Алек Willows, Кристофер Грей, Ванесса Морли, Мириам Сируа, Элизабет Кэрол, Дэвид Кей, Терри Классен, Тайлер Томпсон, Джим Бирнс-Описание: Жила-была на Северном Полюсе оленья семья. И вот однажды у них родился олененок. Все бы было хорошо, только вот был у этого олененка красный нос, из за которого несчастного Рудольфа дразнили другие олени и смеялись над ним. Но был у него еще конкурент, олень Дрон. И никак они вдвоем не могли определить, кто олененок больше Но вот, в один вьюжный сочельник самому Санта-Клаусу потребовалась помощь: как пробиться сквозь бушующую снежную бурю? Рудольф сказал: "Санта, я провезу тебя через бурю за бесплатно." Олененок Дрон при этом отметил: "Милый Рудольф, предлагаю тебе собрать сани из подручных материалов, благо есть дрель и бабло поделим пополам" Поэтому Санта пригласил Рудольфа возглавить упряжку оленей-летателей, которые уносят его сани каждое Рождество, а не Дрона.- Качество видео: DVDRip
Формат видео: AVI
Видео кодек: DivX
Аудио кодек: AC3
Видео: MPEG4, DivX 5, 672x496 (4:3), 25.000 fps, 1 994 Kbps (0.239 bit/pixel)
Аудио: Rus: AC-3, 48.0 KHz, 2 ch, 448 Kbps, CBR
Cубтитры: отсутствуют
Общее
Полное имя : D:\Olenonok.Rydolf.DVDRip.avi
Формат : AVI
Формат/Информация : Audio Video Interleave
Размер файла : 1,37 Гбайт
Продолжительность : 1 ч. 19 м.
Общий поток : 2452 Кбит/сек
Название фильма : Olenonok.Rydolf.DVDRip
Программа кодирования : VirtualDubModRus 1.5.10.2 (build 2540/release)
Видео
Идентификатор : 0
Формат : MPEG-4 Visual
Параметр BVOP формата : 1
Параметр QPel формата : Нет
Параметр GMC формата : Без точки перехода
Параметр матрицы формата : Default (H.263)
Режим смешивания : Сжатый битовый поток
Идентификатор кодека : DX50
Идентификатор кодека/Подсказка : DivX 5
Продолжительность : 1 ч. 19 м.
Битрейт : 1994 Кбит/сек
Ширина : 672 пикселя
Высота : 496 пикселей
Соотношение сторон : 4:3
Частота кадров : 25,000 кадров/сек
Цветовое пространство : YUV
Субдискретизация насыщенности : 4:2:0
Битовая глубина : 8 бит
Тип развёртки : Прогрессивная
Метод сжатия : С потерями
Бит/(Пиксели*Кадры) : 0.239
Размер потока : 1,11 Гбайт (81%)
Библиотека кодирования : DivX 6.8.5 (UTC 2009-08-20)
Аудио
Идентификатор : 1
Формат : AC-3
Формат/Информация : Audio Coding 3
Расширение режима : CM (complete main)
Параметр Endianness формата : Big
Идентификатор кодека : 2000
Продолжительность : 1 ч. 19 м.
Вид битрейта : Постоянный
Битрейт : 448 Кбит/сек
Каналы : 2 канала
Расположение каналов : Front: L R
Частота : 48,0 КГц
Битовая глубина : 16 бит
Метод сжатия : С потерями
Размер потока : 256 Мбайт (18%)
Выравнивание : Разделение по промежуткам
Продолжительность промежутка : 40 мс. (1,00 видеокадр)
Время предзагрузки промежутка : 500 мс.
Download / Скачать

Хотите скачать бесплатно? Зарегистрируйтесь на сайте (ссылка на регистрацию). Pirat.ca - самый быстрый торрент трекер в рунете!

Как скачивать  ·   Что такое торрент  ·   Рейтинг и ограничения

Пост 28-Дек-2012 18:03 (спустя 13 минут)

Топик был перенесен из форума Мультфильмы (Трюм) в форум Зарубежные полнометражные мультфильмы

erchine
 

the_4ik

Морской Волк

5

Пост 29-Дек-2012 08:19 (спустя 14 часов)

[Q] 


_________________
[Профиль]  [ЛС] 

CHARLI2236

1097

Пост 12-Мар-2014 23:13 (спустя 1 год 2 месяца)

[Q] 

подключусь AntiZip 01

_________________
[Профиль]  [ЛС] 
Показать сообщения:    
Ответить на тему

Текущее время: Сегодня 07:03

Часовой пояс: GMT + 4



Вы не можете начинать темы
Вы не можете отвечать на сообщения
Вы не можете редактировать свои сообщения
Вы не можете удалять свои сообщения
Вы не можете голосовать в опросах
Вы не можете прикреплять файлы к сообщениям
Вы не можете скачивать файлы

▼ Вниз