ML
     
  Уважаемый Гость!
Вы можете поддержать проект и зарегистрироваться у наших партнеров - онлайн-стратегия MyLands. При регистрации в игре Вы получите код, который сможете активировать после регистрации на pirat.ca и получить 1000 дублонов.

Ваш код:
47bfc18b89c74e4ae0d974e9b6943639e2bff08e
 
     

Нико: Путь к звездам / Niko & The Way to the Stars (Майкл Хэгнер / Michael Hegner, Кари Юуусонен / Kari Juusonen) [2008 г., мультфильм, BDRip] Dub + Original (Eng)

Ответить на тему
 
Автор
Сообщение

Пост 28-Дек-2012 18:03

[Q] 

Jigsaw

 
-Нико: Путь к звездам
Niko & The Way to the Stars
-- Производство: Германия, Дания, Финляндия, Ирландия
Режиссер: Майкл Хэгнер / Michael Hegner, Кари Юуусонен / Kari Juusonen
Жанр: мультфильм
Год выпуска: 2008 г.
Продолжительность: 01:20:44
Мировая премьера: 22 сентября 2008
Российская премьера: 25 декабря 2008, «Lizard Cinema»
Перевод: Профессиональный (полное дублирование)
Оригинальный аудиопоток: английский
Роли озвучивали: Иван Чуваткин, Сергей Селин, Жанна Фриске, Михаил Лукашов, Мария Овчинникова, Лиза Мартиросова-Описание: Молодому северному оленю по имени Нико снится, что его отец - один из летающих оленей Санта Клауса. Несмотря на страдание от серьезного головокружения, он убегает из своего дома, чтобы взять лётные уроки у его друга, неуклюжей белки-летяги Юлии. Вскоре после этого, Нико и Юлия узнают, что Санта и его северный олень находятся в серьезной опасности. Они собирают своих лесных друзей и отправляются в поход на Северный полюс, чтобы спасти Санта Клауса и его отца.- Качество видео: BDRip
Формат видео: AVI
Видео кодек: XviD
Аудио кодек: AC3
Видео: MPEG4, XviD, 704x384 (16:9), 23.976 fps, 1 795 Kbps (0.277 bit/pixel)
Аудио: Rus: AC-3, 48.0 KHz, 6 ch, 384 Kbps, CBR
Аудио #2: Eng: AC-3, 48.0 KHz, 6 ch, 384 Kbps, CBR
Cубтитры: отсутствуют
Общее
Полное имя : D:\Niko.Put.k.zvezdam.2008.BDRip.avi
Формат : AVI
Формат/Информация : Audio Video Interleave
Размер файла : 1,45 Гбайт
Продолжительность : 1 ч. 20 м.
Общий поток : 2577 Кбит/сек
Название фильма : Niko.Put.k.zvezdam.2008.DUAL.BDRip.XviD.AC3
Программа кодирования : VirtualDubMod 1.5.10.2 (build 2542/release)
Видео
Идентификатор : 0
Формат : MPEG-4 Visual
Профиль формата : Advanced [email protected]
Параметр BVOP формата : 1
Параметр QPel формата : Нет
Параметр GMC формата : Без точки перехода
Параметр матрицы формата : Выборочная
Идентификатор кодека : XVID
Идентификатор кодека/Подсказка : XviD
Продолжительность : 1 ч. 20 м.
Битрейт : 1795 Кбит/сек
Ширина : 704 пикселя
Высота : 384 пикселя
Соотношение сторон : 1,85:1
Частота кадров : 23,976 кадра/сек
Цветовое пространство : YUV
Субдискретизация насыщенности : 4:2:0
Битовая глубина : 8 бит
Тип развёртки : Прогрессивная
Метод сжатия : С потерями
Бит/(Пиксели*Кадры) : 0.277
Размер потока : 1,01 Гбайт (70%)
Библиотека кодирования : XviD 57
Аудио #1
Идентификатор : 1
Формат : AC-3
Формат/Информация : Audio Coding 3
Расширение режима : CM (complete main)
Параметр Endianness формата : Big
Идентификатор кодека : 2000
Продолжительность : 1 ч. 20 м.
Вид битрейта : Постоянный
Битрейт : 384 Кбит/сек
Каналы : 6 каналов
Расположение каналов : Front: L C R, Side: L R, LFE
Частота : 48,0 КГц
Битовая глубина : 16 бит
Метод сжатия : С потерями
Размер потока : 222 Мбайт (15%)
Выравнивание : Разделение по промежуткам
Продолжительность промежутка : 42 мс. (1,00 видеокадр)
Время предзагрузки промежутка : 500 мс.
Аудио #2
Идентификатор : 2
Формат : AC-3
Формат/Информация : Audio Coding 3
Расширение режима : CM (complete main)
Параметр Endianness формата : Big
Идентификатор кодека : 2000
Продолжительность : 1 ч. 20 м.
Вид битрейта : Постоянный
Битрейт : 384 Кбит/сек
Каналы : 6 каналов
Расположение каналов : Front: L C R, Side: L R, LFE
Частота : 48,0 КГц
Битовая глубина : 16 бит
Метод сжатия : С потерями
Размер потока : 222 Мбайт (15%)
Выравнивание : Разделение по промежуткам
Продолжительность промежутка : 42 мс. (1,00 видеокадр)
Время предзагрузки промежутка : 500 мс.
Download / Скачать

Хотите скачать бесплатно? Зарегистрируйтесь на сайте (ссылка на регистрацию). Pirat.ca - самый быстрый торрент трекер в рунете!

Как скачивать  ·   Что такое торрент  ·   Рейтинг и ограничения

Пост 28-Дек-2012 18:17 (спустя 13 минут)

Топик был перенесен из форума Мультфильмы (Трюм) в форум Зарубежные полнометражные мультфильмы

erchine
 

the_4ik

Морской Волк

5

Пост 29-Дек-2012 08:18 (спустя 14 часов)

[Q] 


_________________
[Профиль]  [ЛС] 

kopeika

Штурман

Пост 24-Сен-2014 20:12 (спустя 1 год 8 месяцев)

[Q] 

Раздающему респект! Лови бочку
[Профиль]  [ЛС] 
Показать сообщения:    
Ответить на тему

Текущее время: Сегодня 07:06

Часовой пояс: GMT + 4



Вы не можете начинать темы
Вы не можете отвечать на сообщения
Вы не можете редактировать свои сообщения
Вы не можете удалять свои сообщения
Вы не можете голосовать в опросах
Вы не можете прикреплять файлы к сообщениям
Вы не можете скачивать файлы

▼ Вниз