ML
     
  Уважаемый Гость!
Вы можете поддержать проект и зарегистрироваться у наших партнеров - онлайн-стратегия MyLands. При регистрации в игре Вы получите код, который сможете активировать после регистрации на pirat.ca и получить 1000 дублонов.

Ваш код:
11f49771fdf057c9d51610e4a0925c3b46ddb655
 
     

Игорь / Igor (Энтони Леондис / Anthony Leondis) [2008 г., фэнтези, комедия, семейный, BDRip] (Dub)

Ответить на тему
 
Автор
Сообщение

Пост 17-Дек-2011 00:59

[Q] 

Sirota

Легенда

Игорь / Igor Год выпуска: 2008
Мировая премьера: 19 сентября 2008
Российская премьера: 19 февраля 2009, «West»
Дата выхода DVD: 21 декабря 2010, «West Video»
Производство: США Франция
Жанр: фэнтези, комедия, семейный
Продолжительность: 01:26:32
Перевод: профессиональный (полное дублирование) лицензия
Автор(ы) перевода: Пётр Иващенко, Вячеслав Баранов, Илья Хвостиков, Марианна Шульц, Никита Прозоровский
Режиссер: Энтони Леондис / Anthony Leondis
В ролях: Джон Кьюсак
Стив Бушеми
Шон Хейс
Молли Шеннон
Майлин Класс
Робин Уолш
Мэтт МакКенна
Джон Клиз
Джесс Харнелл
Эдди Иззард
Описание: В мире, населенном Безумными Учеными и Злыми Изобретателями, один талантливый помощник злого ученого мечтает сам стать ученым и выиграть ежегодную Злую Ярмарку Науки.
Доп. информация: сценарий Крис МакКенна, Джон Роберт Хоффман, Энтони Леондис,
продюсер Джон Д. Эраклис, Макс Ховард, Жан-Люк Де Фанти,
композитор Патрик Дойл
художник Луи Расто, Оливье Бессон
монтаж Эрве Шнайд
бюджет $25 000 000
сборы в США $19 528 602
сборы в мире + $11 071 199 = $30 599 8

IMDB, КиноПоиск
Источник/Качество: BDRip
Формат: AVI
Видео кодек: XviD
Аудио кодек: MP3
Видео: 624x336 (1.86:1), 23.976 fps, XviD build 64 ~1065 kbps avg, 0.21 bit/pixel
Аудио: 48 kHz, MPEG Layer 3, 2 ch, ~128.00 kbps avg
Субтитры: нет
General
Format : AVI
Format/Info : Audio Video Interleave
File size : 745 MiB
Duration : 1h 26mn
Overall bit rate : 1 203 Kbps
Writing application : VirtualDubMod 1.5.10.3 (build 2550/release)
Writing library : VirtualDubMod build 2550/release
Video #0
ID : 0
Format : MPEG-4 Visual
Format profile : [email protected]
Format settings, BVOP : Yes
Format settings, QPel : No
Format settings, GMC : No warppoints
Format settings, Matrix : Custom
Codec ID : XVID
Codec ID/Hint : XviD
Duration : 1h 26mn
Bit rate : 1 066 Kbps
Width : 624 pixels
Height : 336 pixels
Display aspect ratio : 1.857
Frame rate : 23.976 fps
Resolution : 24 bits
Colorimetry : 4:2:0
Scan type : Progressive
Bits/(Pixel*Frame) : 0.212
Stream size : 660 MiB (89%)
Writing library : XviD 64
Audio #1
ID : 1
Format : MPEG Audio
Format version : Version 1
Format profile : Layer 3
Codec ID : 55
Codec ID/Hint : MP3
Duration : 1h 26mn
Bit rate mode : Constant
Bit rate : 128 Kbps
Channel(s) : 2 channels
Sampling rate : 48.0 KHz
Resolution : 16 bits
Stream size : 79.2 MiB (11%)
Alignment : Aligned on interleaves
Interleave, duration : 42 ms (1.00 video frame)
Interleave, preload duration : 504 ms
Writing library : LAME3.98r
Encoding settings : -m s -V 4 -q 2 -lowpass 17 -b 128
-
-Релиз подготовлен:

-
-
Download / Скачать

Хотите скачать бесплатно? Зарегистрируйтесь на сайте (ссылка на регистрацию). Pirat.ca - самый быстрый торрент трекер в рунете!

Как скачивать  ·   Что такое торрент  ·   Рейтинг и ограничения

Пост 17-Дек-2011 05:54 (спустя 4 часа)

Топик был перенесен из форума Мультипликация в форум Зарубежные полнометражные мультфильмы

zyyx
 

Юлия19

Морской Волк

375

Пост 02-Фев-2012 21:46 (спустя 1 месяц 16 дней)

[Q] 

Как мультфильм? С первого раза у меня не получилось досмотреть
[Профиль]  [ЛС] 

CHARLI2236

1097

Пост 30-Окт-2012 13:07 (спустя 8 месяцев 27 дней)

[Q] 

спасибо

_________________
[Профиль]  [ЛС] 
Показать сообщения:    
Ответить на тему

Текущее время: Сегодня 03:12

Часовой пояс: GMT + 4



Вы не можете начинать темы
Вы не можете отвечать на сообщения
Вы не можете редактировать свои сообщения
Вы не можете удалять свои сообщения
Вы не можете голосовать в опросах
Вы не можете прикреплять файлы к сообщениям
Вы не можете скачивать файлы

▼ Вниз