ML
     
  Уважаемый Гость!
Вы можете поддержать проект и зарегистрироваться у наших партнеров - онлайн-стратегия MyLands. При регистрации в игре Вы получите код, который сможете активировать после регистрации на pirat.ca и получить 1000 дублонов.

Ваш код:
cc3be08b7507661c03e0a2f582d0da3a659ea55a
 
     

Масс Эффект: Утерянный Парагон / Mass Effect: Paragon Lost (Ацуси Такэути) [2012 г., мультфильм, фантастика, боевик, HDRip] MVO

Страницы :  1, 2  След.

Ответить на тему
 
Автор
Сообщение

Пост 29-Дек-2012 13:45

[Q] 

AGKRus36

-Масс Эффект: Утерянный Парагон
Mass Effect: Paragon Lost
-- Производство: США, Япония, Канада / Bioware, Electronic Arts (EA), FUNimation Entertainment
Режиссер: Ацуси Такэути / Atsushi Takeuchi
Жанр: мультфильм, фантастика, боевик
Год выпуска: 2012 г.
Продолжительность: 01:34:13
Мировая премьера: 29 ноября 2012
Перевод: Профессиональный (многоголосый, закадровый) [SkyeFilm TV]
Роли озвучивали: Лора Бэйли, Брюс Кэри, Джастин Кук, Джейсон Дуглас, Кара Эдвардс, Джош Грелл , Тодд Хаберкорн, Вик Миньона, Фредди Принц мл, Моника Риал, Джад Сэкстон, Патрик Сэйтц, Марк Суинт, Эрик Вейл, Трэвис Уиллингэм-Описание: США, Япония, Канада / Bioware, Electronic Arts (EA), FUNimation Entertainment-Сэмпл IMDB КиноПоиск
Качество видео: HDRip
Формат видео: AVI
Видео кодек: XviD
Аудио кодек: AC3
Видео: 720x384 (1.88:1), 23.976 fps, XviD MPEG-4 ~1695 kbps avg, 0.26 bit/pixel
Аудио: 48 kHz, AC3 Dolby Digital, 3/2 (L,C,R,l,r) + LFE ch, ~384 kbps
Cубтитры: отсутствуют
F:\Фильмы\Ушедший Герой\Mass.Jeffekt.Ushedshij.Geroj.2012.P.HDRip.avi
General
Complete name : F:\Фильмы\Ушедший Герой\Mass.Jeffekt.Ushedshij.Geroj.2012.P.HDRip.avi
Format : AVI
Format/Info : Audio Video Interleave
File size : 1.37 GiB
Duration : 1h 34mn
Overall bit rate : 2 089 Kbps
Writing application : VirtualDubMod 1.5.10.2 (build 2540/release)
Writing library : VirtualDubMod build 2540/release
Video #0
ID : 0
Format : MPEG-4 Visual
Format profile : Advanced [email protected]
Format settings, BVOP : 3
Format settings, QPel : No
Format settings, GMC : No warppoints
Format settings, Matrix : Default (H.263)
Muxing mode : Packed bitstream
Codec ID : XVID
Codec ID/Hint : XviD
Duration : 1h 34mn
Bit rate : 1 695 Kbps
Width : 720 pixels
Height : 384 pixels
Display aspect ratio : 1.85:1
Frame rate : 23.976 fps
Color space : YUV
Chroma subsampling : 4:2:0
Bit depth : 8 bits
Scan type : Progressive
Compression mode : Lossy
Bits/(Pixel*Frame) : 0.256
Stream size : 1.12 GiB (81%)
Writing library : XviD 64
Audio #1
ID : 1
Format : AC-3
Format/Info : Audio Coding 3
Mode extension : CM (complete main)
Format settings, Endianness : Big
Codec ID : 2000
Duration : 1h 34mn
Bit rate mode : Constant
Bit rate : 384 Kbps
Channel(s) : 6 channels
Channel positions : Front: L C R, Side: L R, LFE
Sampling rate : 48.0 KHz
Bit depth : 16 bits
Compression mode : Lossy
Delay relative to video : 16ms
Stream size : 259 MiB (18%)
Alignment : Split accross interleaves
Interleave, duration : 42 ms (1.00 video frame)
Interleave, preload duration : 500 ms
Download / Скачать

Хотите скачать бесплатно? Зарегистрируйтесь на сайте (ссылка на регистрацию). Pirat.ca - самый быстрый торрент трекер в рунете!

Как скачивать  ·   Что такое торрент  ·   Рейтинг и ограничения

the_lame

Корсар

Пост 29-Дек-2012 14:31 (спустя 46 минут)

[Q] 

Игруха нравилась, оценим и мульт.
[Профиль]  [ЛС] 

Пост 29-Дек-2012 14:44 (спустя 12 минут)

Топик был перенесен из форума Мультфильмы (Трюм) в форум Новинки (HD|DVD|BD|TV|SAT|PDTV| - Rips)

ara1205
 

hotab

Штурман

Пост 29-Дек-2012 14:51 (спустя 19 минут)

[Q] 

ну как качество перевод?
[Профиль]  [ЛС] 

Goga666

Шкипер

324

Пост 29-Дек-2012 15:19 (спустя 28 минут)

[Q] 

Прикольно, забираю, сынок любит такие мульты
[Профиль]  [ЛС] 

BLOoD_Asp

Штурман

Пост 29-Дек-2012 16:29 (спустя 1 час 9 минут)

[Q] 

зато перевод гуд
[Профиль]  [ЛС] 

Муравей

Корсар

Пост 29-Дек-2012 17:53 (спустя 1 час 24 минуты)

[Q] 

[Профиль]  [ЛС] 

vik238

Корсар

Пост 29-Дек-2012 19:32 (спустя 1 час 38 минут)

[Q] 

[Профиль]  [ЛС] 

westrise

Морской Волк

Пост 29-Дек-2012 20:05 (спустя 33 минуты)

[Q] 

Рисовка дешевая ai биовары могли бы и раскошелиться на норм аниматоров.
[Профиль]  [ЛС] 

IRLes

Шкипер

Пост 29-Дек-2012 21:20 (спустя 1 час 14 минут)

[Q] 

[Профиль]  [ЛС] 

kindcat

Морской Волк

Пост 29-Дек-2012 22:42 (спустя 1 час 22 минуты)

[Q] 

Мда....такую франшизу дать в руки оленям...одни только лица из рук Вовы 2 "Б" походу....А Саня с 4 "В" ведать спеэффекты помогал дорисовывать.... anime95

_________________
[Профиль]  [ЛС] 

}{rYn4iK

Морской Волк

Пост 29-Дек-2012 23:49 (спустя 1 час 6 минут)

[Q] 

[Профиль]  [ЛС] 

Dicsus

Лоцман

Пост 30-Дек-2012 00:10 (спустя 21 минута)

[Q] 

Шикарная анимешка!!! Давно ждал. Автору мега респект!!! bi
[Профиль]  [ЛС] 

Dicsus

Лоцман

Пост 30-Дек-2012 00:12 (спустя 1 минута)

[Q] 

Рисовка конечно не фонтан, но достаточно интересно и вполне в духе ME
[Профиль]  [ЛС] 

kisu

Гроза морей

Пост 30-Дек-2012 00:15 (спустя 3 минуты)

[Q] 

а о чем мульт-то??
[Профиль]  [ЛС] 

Dicsus

Лоцман

Пост 30-Дек-2012 00:26 (спустя 10 минут)

[Q] 

История Веги (сопартийца из ME3). Разворачиваются в тоже время, что и вторая часть ME2
[Профиль]  [ЛС] 

KonanVarvar

Морской Волк

Пост 30-Дек-2012 00:54 (спустя 28 минут)

[Q] 

[Профиль]  [ЛС] 

BadaBOOM

Штурман

Пост 30-Дек-2012 01:51 (спустя 56 минут)

[Q] 

Спасибо! Как поклонник серии игр, забираю)
[Профиль]  [ЛС] 

Amefa

Лоцман

Пост 30-Дек-2012 03:22 (спустя 1 час 31 минута)

[Q] 

Роли озвучивали: Лора Бэйли, Брюс Кэри, Джастин Кук, Джейсон Дуглас, Кара Эдвардс, Джош Грелл , Тодд Хаберкорн, Вик Миньона, Фредди Принц мл, Моника Риал, Джад Сэкстон, Патрик Сэйтц, Марк Суинт, Эрик Вейл, Трэвис Уиллингэм
Описание: США, Япония, Канада / Bioware, Electronic Arts (EA), FUNimation Entertainment
Описание конечно пизЪец - поди угадай, о чём мульт!!! Но зато "роли озвучивали" (как-будто это важно) перекрывает всё. Мульт они что ли сняли??? Ах нет, они только поговорили в микрофон на субтитры....
[Профиль]  [ЛС] 

sergokov

Флибустьер

754

Пост 30-Дек-2012 09:12 (спустя 5 часов)

[Q] 

[Профиль]  [ЛС] 

lex-sr

Корсар

Пост 30-Дек-2012 10:18 (спустя 1 час 5 минут)

[Q] 

Посмотрел. Бредятина полная. Полный отстой. Опозорили игру
[Профиль]  [ЛС] 

IVAN_WILD

Корсар

353

Пост 30-Дек-2012 11:39 (спустя 1 час 20 минут)

[Q] 


_________________
[Профиль]  [ЛС] 

TataM

Лоцман

Пост 30-Дек-2012 12:21 (спустя 42 минуты)

[Q] 

fh
[Профиль]  [ЛС] 

bull271174

Флибустьер

Пост 30-Дек-2012 20:34 (спустя 8 часов)

[Q] 

[Профиль]  [ЛС] 

stas881

Шкипер

Пост 30-Дек-2012 20:48 (спустя 13 минут)

[Q] 

[Профиль]  [ЛС] 

trogvar_10

Корсар

38

Пост 31-Дек-2012 03:57 (спустя 7 часов)

[Q] 

[Профиль]  [ЛС] 

Aleks44

Гроза морей

Пост 31-Дек-2012 11:51 (спустя 7 часов)

[Q] 

Мультик нудный не интересный ребенок посмотрел 20 минут и ушел
[Профиль]  [ЛС] 

Геннадий

Морской Волк

Пост 31-Дек-2012 12:34 (спустя 43 минуты)

[Q] 

Качать не буду
[Профиль]  [ЛС] 

TomIce

Морской Волк

Пост 03-Янв-2013 20:20 (спустя 3 дня)

[Q] 

[Профиль]  [ЛС] 

slavix

Корсар

Пост 04-Янв-2013 02:07 (спустя 5 часов)

[Q] 

мульт понравился и озвучка хорошая, но нарисован очень плохо
[Профиль]  [ЛС] 
Показать сообщения:    
Ответить на тему

Текущее время: Сегодня 05:07

Часовой пояс: GMT + 4



Вы не можете начинать темы
Вы не можете отвечать на сообщения
Вы не можете редактировать свои сообщения
Вы не можете удалять свои сообщения
Вы не можете голосовать в опросах
Вы не можете прикреплять файлы к сообщениям
Вы не можете скачивать файлы

▼ Вниз