ML
     
  Уважаемый Гость!
Вы можете поддержать проект и зарегистрироваться у наших партнеров - онлайн-стратегия MyLands. При регистрации в игре Вы получите код, который сможете активировать после регистрации на pirat.ca и получить 1000 дублонов.

Ваш код:
cc3be08b7507661c03e0a2f582d0da3a659ea55a
 
     

Эдит и я / Technotise - Edit i ja (Алекса Гайич, Небойша Андрич, Стеван Джорджевич / Aleksa Gajic, Nebojsa Andric, Stevan Djordjevic) [2009 г., фантастика, боевик, BDRip] Доцент

Ответить на тему
 
Автор
Сообщение

Пост 17-Дек-2011 01:30

[Q] 

Sirota

Легенда

Эдит и я / Technotise - Edit i ja Год выпуска: 2009
Мировая премьера: 8 апреля 2009
Производство: Сербия
Жанр: фантастика, боевик
Продолжительность: 01:29:50
Перевод: авторский, одноголосый (Доцент)
Режиссер: Алекса Гайич, Небойша Андрич, Стеван Джорджевич / Aleksa Gajic, Nebojsa Andric, Stevan Djordjevic
В ролях: Санда Кнежевич
Небойша Глоговац
Елисавета Саблич
Петар Краль
Никола Джурицко
Борис Миливоевич
Срджан Тодорович
Мария Каран
Татьяна Джорджевич
Власта Велисавлевич
Описание: Белград, 2074 год. Эдит — студентка. После нескольких неудачных попыток сдать экзамен она решает имплантировать себе чип для улучшения памяти. И после этого с ней начинают происходить странные вещи…
Доп. информация: сценарий Алекса Гайич
продюсер Зоран Цвиянович, Милко Йосифов, Алекса Гайич
композитор Boris Furduj
художник Алекса Гайич
монтаж Небойша Андрич, Марко Глусач
Сэмпл, IMDB, КиноПоиск
Источник/Качество: BDRip исходник [BDRemux]
Формат: AVI
Видео кодек: XviD
Аудио кодек: AC3
Видео: 720x400 (1.80:1), 23.976 fps, XviD build 63 ~1875 kbps avg, 0.27 bit/pixel
Аудио: 48 kHz, AC3 Dolby Digital, 3/2 (L,C,R,l,r) + LFE ch, ~448.00 kbps avg
Субтитры: нет
General
Format : AVI
Format/Info : Audio Video Interleave
File size : 1.46 GiB
Duration : 1h 29mn
Overall bit rate : 2 333 Kbps
Writing application : VirtualDubMod 1.5.10.2 (build 2540/release)
Writing library : VirtualDubMod build 2540/release
Video #0
ID : 0
Format : MPEG-4 Visual
Format profile : [email protected]
Format settings, BVOP : Yes
Format settings, QPel : No
Format settings, GMC : No warppoints
Format settings, Matrix : Default (MPEG)
Codec ID : XVID
Codec ID/Hint : XviD
Duration : 1h 29mn
Bit rate : 1 876 Kbps
Width : 720 pixels
Height : 400 pixels
Display aspect ratio : 16:9
Frame rate : 23.976 fps
Resolution : 24 bits
Colorimetry : 4:2:0
Scan type : Progressive
Bits/(Pixel*Frame) : 0.272
Stream size : 1.18 GiB (80%)
Writing library : XviD 63
Audio #1
ID : 1
Format : AC-3
Format/Info : Audio Coding 3
Codec ID : 2000
Duration : 1h 29mn
Bit rate mode : Constant
Bit rate : 448 Kbps
Channel(s) : 6 channels
Channel positions : Front: L C R, Surround: L R, LFE
Sampling rate : 48.0 KHz
Stream size : 288 MiB (19%)
Alignment : Split accross interleaves
Interleave, duration : 42 ms (1.00 video frame)
Interleave, preload duration : 500 ms
-
-Релиз подготовлен:

-
-
Download / Скачать

Хотите скачать бесплатно? Зарегистрируйтесь на сайте (ссылка на регистрацию). Pirat.ca - самый быстрый торрент трекер в рунете!

Как скачивать  ·   Что такое торрент  ·   Рейтинг и ограничения



Последний раз редактировалось: Sirota (2011-12-17 06:33), всего редактировалось 1 раз

Пост 17-Дек-2011 05:54 (спустя 4 часа)

Топик был перенесен из форума Мультипликация в форум Зарубежные полнометражные мультфильмы

zyyx
 

got70

Легенда

752

Пост 18-Янв-2012 21:05 (спустя 1 месяц 1 день)

[Q] 

Так себе.

_________________
Добро непременно победит зло!Непременно...Затем поставит на колени,и зверски УБЬЁТ!
[Профиль]  [ЛС] 

CHARLI2236

1097

Пост 30-Окт-2012 13:44 (спустя 9 месяцев 11 дней)

[Q] 

спасибо

_________________
[Профиль]  [ЛС] 
Показать сообщения:    
Ответить на тему

Текущее время: Сегодня 05:06

Часовой пояс: GMT + 4



Вы не можете начинать темы
Вы не можете отвечать на сообщения
Вы не можете редактировать свои сообщения
Вы не можете удалять свои сообщения
Вы не можете голосовать в опросах
Вы не можете прикреплять файлы к сообщениям
Вы не можете скачивать файлы

▼ Вниз