ML
     
  Уважаемый Гость!
Вы можете поддержать проект и зарегистрироваться у наших партнеров - онлайн-стратегия MyLands. При регистрации в игре Вы получите код, который сможете активировать после регистрации на pirat.ca и получить 1000 дублонов.

Ваш код:
0af2e2107bc9b5dd5ac2c09f9fc25e1a77c43887
 
     

Марко Макако / Marco Macaco (Жан Рабек / Jean Rabek) [2012 г., мультфильм, комедия, семейный, DVDRip] Dub[лицензия]

Ответить на тему
 
Автор
Сообщение

Пост 15-Янв-2013 08:32

[Q] 

Су-34

Гроза морей

-Марко Макако / Marco Macaco- -Производство: Дания / Nice Ninja Productions
Режиссер: Жан Рабек / Jean Rabek
Жанр: мультфильм, комедия, семейный
Год выпуска: 2012 г.
Продолжительность: 01:15:4
Перевод: Профессиональный (полное дублирование)[лицензия]-Мировая премьера: 11 октября 2012
Российская премьера: 27 декабря 2012, «Люксор»-Роли озвучивали: Токе Бьярке, Милле Лефельдт, Руне Толсгаард, Джесс Ингерслев-Описание: Марко Макако работает пляжным охранником на тропическом острове. Он верой и правдой служит своему боссу, мечтая лишь об одном — раскрыть серьезное преступление. Марко проводит собственные расследования по любому поводу и поднимает шумиху по пустякам. Однако вскоре ему по-настоящему повезет: завоевывая расположение красавицы Лулу, Марко раскроет коварный заговор богача Карло, вознамерившегося стать боссом.-Сэмпл
IMDB
КиноПоиск-Качество видео: DVDRip
Формат видео: AVI
Видео кодек: XviD
Аудио кодек: AC3
Видео: 720x384 (1.88:1), 25 fps, XviD build 50 ~2129 kbps avg, 0.31 bit/pixel
Аудио: 48 kHz, AC3 Dolby Digital, 3/2 (L,C,R,l,r) + LFE ch, ~448 kbps
Cубтитры: отсутствуют
General
Complete name : D:\Torrents\Marko.makako.2012.D.DVDRip.1400MB.avi
Format : AVI
Format/Info : Audio Video Interleave
File size : 1.37 GiB
Duration : 1h 15mn
Overall bit rate : 2 588 Kbps
Writing application : VirtualDubMod 1.5.10.2 (build 2542/release)
Writing library : VirtualDubMod build 2542/release
Video #0
ID : 0
Format : MPEG-4 Visual
Format profile : [email protected]
Format settings, BVOP : Yes
Format settings, QPel : No
Format settings, GMC : No warppoints
Format settings, Matrix : Default (MPEG)
Codec ID : XVID
Codec ID/Hint : XviD
Duration : 1h 15mn
Bit rate : 2 130 Kbps
Width : 720 pixels
Height : 384 pixels
Display aspect ratio : 1.875
Frame rate : 25.000 fps
Resolution : 24 bits
Colorimetry : 4:2:0
Scan type : Progressive
Bits/(Pixel*Frame) : 0.308
Stream size : 1.13 GiB (82%)
Writing library : XviD 1.2.1 (UTC 2008-12-04)
Audio #1
ID : 1
Format : AC-3
Format/Info : Audio Coding 3
Codec ID : 2000
Duration : 1h 15mn
Bit rate mode : Constant
Bit rate : 448 Kbps
Channel(s) : 6 channels
Channel positions : Front: L C R, Surround: L R, LFE
Sampling rate : 48.0 KHz
Video delay : 1s 0ms
Stream size : 243 MiB (17%)
Alignment : Split accross interleaves
Interleave, duration : 40 ms (1.00 video frame)
Interleave, preload duration : 500 ms
Download / Скачать

Хотите скачать бесплатно? Зарегистрируйтесь на сайте (ссылка на регистрацию). Pirat.ca - самый быстрый торрент трекер в рунете!

Как скачивать  ·   Что такое торрент  ·   Рейтинг и ограничения

Пост 15-Янв-2013 09:59 (спустя 1 час 27 минут)

Топик был перенесен из форума Мультфильмы (Трюм) в форум Новинки (HD|DVD|BD|TV|SAT|PDTV| - Rips)

ara1205
 

alexey3312

Флибустьер

398

Пост 15-Янв-2013 12:50 (спустя 4 часа)

[Q] 

На двух последних на Обаму похож...

_________________
Металлисты - это самый развитой и передовой класс, и никто не может отрицать, что это и есть передовой отряд всего пролетариата. В.И. Ленин
[Профиль]  [ЛС] 

kisu

Гроза морей

Пост 15-Янв-2013 12:58 (спустя 7 минут)

[Q] 

как мульт?
[Профиль]  [ЛС] 

Klex

Морской Волк

Пост 15-Янв-2013 13:28 (спустя 30 минут)

[Q] 

Поглядим, игра еще такая есть на андроид
[Профиль]  [ЛС] 

dimonpa

Гроза морей

Пост 15-Янв-2013 13:34 (спустя 5 минут)

[Q] 

[Профиль]  [ЛС] 

Gorbunkoff

Шкипер

Пост 15-Янв-2013 14:00 (спустя 25 минут)

[Q] 

Трейлер отпадный, посмотрим как мульт
[Профиль]  [ЛС] 

djonkomi

Лоцман

Пост 15-Янв-2013 14:31 (спустя 31 минута)

[Q] 

[Профиль]  [ЛС] 

чага

Штурман

Пост 15-Янв-2013 16:57 (спустя 2 часа 26 минут)

[Q] 

на трех последних
[Профиль]  [ЛС] 

polozm

Легенда

Пост 15-Янв-2013 18:55 (спустя 1 час 57 минут)

[Q] 

Тупичка полная... dk db

_________________
mac mini -2.0 GHz Intel Core i7/ 8 GB DDR3. /Intel HD 3000(512mb)OS X 10.9 Mavericks
[Профиль]  [ЛС] 

kolking89

Морской Волк

Пост 15-Янв-2013 21:15 (спустя 2 часа 20 минут)

[Q] 

по трейлеру было смешно. гляну, потом отпишусь.
[Профиль]  [ЛС] 

Serf

Корсар

163

Пост 17-Янв-2013 12:46 (спустя 1 день 15 часов)

[Q] 

Детям стоит смотреть и показать забавный мульт dc
не по теме но не подскажет никто название мульта "с большим орлом(соколом) и маленьким мальчиком , действие проходило в америке"
старенький в детстве смотрел ещё

_________________
[Профиль]  [ЛС] 

Су-34 ®

Гроза морей

10390

Пост 24-Янв-2013 15:29 (спустя 7 дней)

[Q] 

Да так муль особо не приколол
[Профиль]  [ЛС] 

zaic111

Лоцман

Пост 25-Янв-2013 15:15 (спустя 23 часа)

[Q] 

Насчет мульта с орлом и мальчиком, это "Спасатели в Австралии".
[Профиль]  [ЛС] 

vvMARYvv

Шкипер

11

Пост 14-Фев-2013 01:13 (спустя 19 дней)

[Q] 

Для детей в самый раз
[Профиль]  [ЛС] 

slavix

Корсар

Пост 20-Фев-2013 17:25 (спустя 6 дней)

[Q] 

ребёнок не стал смотреть
[Профиль]  [ЛС] 

Paseidon80

Морской Волк

Пост 20-Мар-2013 17:15 (спустя 27 дней)

[Q] 

[Профиль]  [ЛС] 
Показать сообщения:    
Ответить на тему

Текущее время: Сегодня 00:05

Часовой пояс: GMT + 4



Вы не можете начинать темы
Вы не можете отвечать на сообщения
Вы не можете редактировать свои сообщения
Вы не можете удалять свои сообщения
Вы не можете голосовать в опросах
Вы не можете прикреплять файлы к сообщениям
Вы не можете скачивать файлы

▼ Вниз