ML
     
  Уважаемый Гость!
Вы можете поддержать проект и зарегистрироваться у наших партнеров - онлайн-стратегия MyLands. При регистрации в игре Вы получите код, который сможете активировать после регистрации на pirat.ca и получить 1000 дублонов.

Ваш код:
ca44e9295b9b8527ba1c339c20494f70782efea6
 
     

Темный рыцарь: Возрождение легенды. Часть 2 / Batman: The Dark Knight Returns, Part 2 (Джей Олива / Jay Oliva) [2013 г., мультфильм, боевик, HDRip] Dub + Original (Eng) [Лицензия]

Ответить на тему
 
Автор
Сообщение

Пост 16-Янв-2013 18:30

[Q] 

AGKRus36

-Темный рыцарь: Возрождение легенды. Часть 2
Batman: The Dark Knight Returns, Part 2
-- Производство: США / DC Entertainment, Warner Bros. Animation, Warner Premiere
Режиссер: Джей Олива / Jay Oliva
Жанр: мультфильм, боевик
Год выпуска: 2013 г.
Продолжительность: 01:15:49
Перевод: Профессиональный (полное дублирование) [Лицензия]
Оригинальный аудиопоток: английский
Роли озвучивали: Питер Уэллер, Эриель Винтер, Дэвид Селби, Пэйджет Брюстер, Майкл Эмерсон, Грэй ДеЛисл, Майкл МакКин, Фрэнк Уэлкер, Ди Брэдли Бейкер, Марк Вэлли-Описание: Тёмный рыцарь и юнный смельчак Кэрри Келли в образе Робина, наконец, освободили Готем-Сити и позволили лучу надежды проникнуть в царство террора, созданное в городе мутантами. Но стоило Бэтману вновь оказаться в центре внимания прессы, как проснулось гораздо худшее зло из Лечебницы Аркхэм - Джокер! Вечный смертельный враг Бэтмена, Джокер строит дьявольскую схему, которая бросит Бэтмена в самые тёмные глубины безумия. Между тем на горизонте возникает новая глобальная катастрофа Готема, и с ней приходит старый знакомый, Человек из Стали, держа Бэтмена на прицеле...-Сэмпл IMDB КиноПоиск
Качество видео: HDRip
Формат видео: AVI
Видео кодек: XviD
Аудио кодек: AC3
Видео: 720x400 (1.80:1), 23.976 fps, XviD MPEG-4 ~1925 kbps avg, 0.28 bit/pixel
Аудио 1: 48 kHz, AC3 Dolby Digital, 2/0 (L,R) ch, ~192 kbps Русский
Аудио 2: 48 kHz, AC3 Dolby Digital, 3/2 (L,C,R,l,r) + LFE ch, ~448 kbps Английский
Cубтитры: отсутствуют
F:\Темный рыцарь Возрождение легенды. Часть 2\Temnyj.rycar.Vozrozhdenie.legendy.Chast.2.2013.D.HDRip.avi
General
Complete name : F:\Темный рыцарь Возрождение легенды. Часть 2\Temnyj.rycar.Vozrozhdenie.legendy.Chast.2.2013.D.HDRip.avi
Format : AVI
Format/Info : Audio Video Interleave
File size : 1.37 GiB
Duration : 1h 15mn
Overall bit rate : 2 579 Kbps
Genre : Animation | Action
Writing application : VirtualDubMod 1.5.10.2 (build 2540/release)
Original source form/Name : Cartoon
Video #0
ID : 0
Format : MPEG-4 Visual
Format profile : Advanced [email protected]
Format settings, BVOP : 2
Format settings, QPel : No
Format settings, GMC : No warppoints
Format settings, Matrix : Custom
Codec ID : XVID
Codec ID/Hint : XviD
Duration : 1h 15mn
Bit rate : 1 925 Kbps
Width : 720 pixels
Height : 400 pixels
Display aspect ratio : 16:9
Frame rate : 23.976 fps
Color space : YUV
Chroma subsampling : 4:2:0
Bit depth : 8 bits
Scan type : Progressive
Compression mode : Lossy
Bits/(Pixel*Frame) : 0.279
Stream size : 1.02 GiB (75%)
Writing library : XviD 64
Audio #1
ID : 1
Format : AC-3
Format/Info : Audio Coding 3
Mode extension : CM (complete main)
Format settings, Endianness : Big
Codec ID : 2000
Duration : 1h 15mn
Bit rate mode : Constant
Bit rate : 192 Kbps
Channel(s) : 2 channels
Channel positions : Front: L R
Sampling rate : 48.0 KHz
Bit depth : 16 bits
Compression mode : Lossy
Stream size : 104 MiB (7%)
Alignment : Split accross interleaves
Interleave, duration : 42 ms (1.00 video frame)
Interleave, preload duration : 500 ms
Audio #2
ID : 2
Format : AC-3
Format/Info : Audio Coding 3
Mode extension : CM (complete main)
Format settings, Endianness : Big
Codec ID : 2000
Duration : 1h 15mn
Bit rate mode : Constant
Bit rate : 448 Kbps
Channel(s) : 6 channels
Channel positions : Front: L C R, Side: L R, LFE
Sampling rate : 48.0 KHz
Bit depth : 16 bits
Compression mode : Lossy
Stream size : 243 MiB (17%)
Alignment : Split accross interleaves
Interleave, duration : 42 ms (1.00 video frame)
Interleave, preload duration : 500 ms
Download / Скачать

Хотите скачать бесплатно? Зарегистрируйтесь на сайте (ссылка на регистрацию). Pirat.ca - самый быстрый торрент трекер в рунете!

Как скачивать  ·   Что такое торрент  ·   Рейтинг и ограничения

Пост 16-Янв-2013 20:18 (спустя 1 час 48 минут)

Топик был перенесен из форума Мультфильмы (Трюм) в форум Новинки (HD|DVD|BD|TV|SAT|PDTV| - Rips)

erchine
 

Anarez

Штурман

Пост 16-Янв-2013 21:21 (спустя 2 часа 50 минут)

[Q] 

[Профиль]  [ЛС] 

DEMONU4

Корсар

Пост 16-Янв-2013 21:57 (спустя 36 минут)

[Q] 

Супермен проглотил кирпич.
[Профиль]  [ЛС] 

dimonpa

Гроза морей

Пост 17-Янв-2013 07:23 (спустя 9 часов)

[Q] 

[Профиль]  [ЛС] 

flesh_208

Корсар

Пост 17-Янв-2013 09:33 (спустя 2 часа 9 минут)

[Q] 

307224Супермен проглотил кирпич.
bj bj ag ag bj bj
[Профиль]  [ЛС] 

slavix

Корсар

Пост 20-Янв-2013 15:25 (спустя 3 дня)

[Q] 

ну и бред, даже Советы вспомнили
[Профиль]  [ЛС] 

Strix

Флибустьер

Пост 27-Авг-2013 12:17 (спустя 7 месяцев 6 дней)

[Q] 

Спасибо!
[Профиль]  [ЛС] 
Показать сообщения:    
Ответить на тему

Текущее время: Сегодня 16:17

Часовой пояс: GMT + 4



Вы не можете начинать темы
Вы не можете отвечать на сообщения
Вы не можете редактировать свои сообщения
Вы не можете удалять свои сообщения
Вы не можете голосовать в опросах
Вы не можете прикреплять файлы к сообщениям
Вы не можете скачивать файлы

▼ Вниз