ML
     
  Уважаемый Гость!
Вы можете поддержать проект и зарегистрироваться у наших партнеров - онлайн-стратегия MyLands. При регистрации в игре Вы получите код, который сможете активировать после регистрации на pirat.ca и получить 1000 дублонов.

Ваш код:
c89b4b6523eaac3173e9a9c062ac1a19db575961
 
     

Тэд Джонс и Затерянный город 3D / Las aventuras de Tadeo Jones (Энрике Гато / Enrique Gato) [2012 г., мультфильм, приключения, семейный, BDRip] Dub

Ответить на тему
 
Автор
Сообщение

Пост 18-Янв-2013 13:26

[Q] 

AGKRus36

-Тэд Джонс и Затерянный город 3D / Las aventuras de Tadeo Jones -«По следам Индианы Джонса»- Производство: Испания / Telefоnica Producciones, Ikiru Films, Lightbox Entertainment
Режиссер: Энрике Гато / Enrique Gato
Жанр: мультфильм, приключения, семейный
Год выпуска: 2012 г.
Продолжительность: 01:32:00-Мировая премьера: 4 июня 2012
Российская премьера: 6 декабря 2012, «Каравелла DDC»
Перевод: Профессиональный (полное дублирование)-Роли озвучивали: Оскар Барберан, Меритксель Ане, Карлес Канут, Фиона Глэскотт, Адам Джеймс, Мишель Хеннер, Мигель Анхель Дженнер, Энрикета Линарес, Мак МакДональд, Брюс Маккиннон-Описание: Тэд — обычный чикагский строитель, страстно мечтающий о невероятных открытиях и опасных приключениях. Однажды его по ошибке принимают за известного археолога и отправляют в Перу на поиски сокровищ инков. Радости Тэда не было предела, но, похоже, она оказалась преждевременной…-Сэмпл IMDB КиноПоиск
Качество видео: BDRip [Рип с Blu-ray 1080p]
Формат видео: AVI
Видео кодек: XviD
Аудио кодек: AC3
Видео: 720x384 (1.85:1), 23.976 fps, XviD build 50 ~1801 kbps avg, 0.27 bit/pixel
Аудио: 48 kHz, AC3 Dolby Digital, 3/2 (L,C,R,l,r) + LFE ch, ~448 kbps
Cубтитры: отсутствуют
F:\Фильмы\Тэд Джонс и Затерянный город 3D\Ted.Djons.i.Zaterjannyj.Gorod.2012.D.BDRip.avi
General
Complete name : F:\Фильмы\Тэд Джонс и Затерянный город 3D\Ted.Djons.i.Zaterjannyj.Gorod.2012.D.BDRip.avi
Format : AVI
Format/Info : Audio Video Interleave
File size : 1.45 GiB
Duration : 1h 32mn
Overall bit rate : 2 258 Kbps
Writing application : VirtualDubMod 1.5.10.3 | www.virtualdub-fr.org || (build 2550/release)
Video #0
ID : 0
Format : MPEG-4 Visual
Format profile : Advanced [email protected]
Format settings, BVOP : 1
Format settings, QPel : No
Format settings, GMC : No warppoints
Format settings, Matrix : Custom
Codec ID : XVID
Codec ID/Hint : XviD
Duration : 1h 32mn
Bit rate : 1 801 Kbps
Width : 720 pixels
Height : 384 pixels
Display aspect ratio : 1.85:1
Frame rate : 23.976 fps
Color space : YUV
Chroma subsampling : 4:2:0
Bit depth : 8 bits
Scan type : Progressive
Compression mode : Lossy
Bits/(Pixel*Frame) : 0.272
Stream size : 1.16 GiB (80%)
Writing library : XviD 1.2.1 (UTC 2008-12-04)
Audio #1
ID : 1
Format : AC-3
Format/Info : Audio Coding 3
Mode extension : CM (complete main)
Format settings, Endianness : Big
Codec ID : 2000
Duration : 1h 32mn
Bit rate mode : Constant
Bit rate : 448 Kbps
Channel(s) : 6 channels
Channel positions : Front: L C R, Side: L R, LFE
Sampling rate : 48.0 KHz
Bit depth : 16 bits
Compression mode : Lossy
Stream size : 296 MiB (20%)
Alignment : Split accross interleaves
Interleave, duration : 42 ms (1.00 video frame)
Interleave, preload duration : 500 ms
Download / Скачать

Хотите скачать бесплатно? Зарегистрируйтесь на сайте (ссылка на регистрацию). Pirat.ca - самый быстрый торрент трекер в рунете!

Как скачивать  ·   Что такое торрент  ·   Рейтинг и ограничения

veter13

Корсар

Пост 18-Янв-2013 17:58 (спустя 4 часа)

[Q] 

[Профиль]  [ЛС] 

aiden57

Гроза морей

3259

Пост 18-Янв-2013 18:43 (спустя 45 минут)

[Q] 


_________________

Мои раздачи
[Профиль]  [ЛС] 

Пост 18-Янв-2013 19:11 (спустя 27 минут)

Топик был перенесен из форума Мультфильмы (Трюм) в форум Новинки (HD|DVD|BD|TV|SAT|PDTV| - Rips)

ara1205
 

Dontist

Шкипер

Пост 18-Янв-2013 19:15 (спустя 31 минута)

[Q] 

спасибо! заценим!
[Профиль]  [ЛС] 

odyssey123

Флибустьер

Пост 18-Янв-2013 20:15 (спустя 1 час)

[Q] 

[Профиль]  [ЛС] 

leonid.

Флибустьер

Пост 18-Янв-2013 22:44 (спустя 2 часа 28 минут)

[Q] 

спасибо!
[Профиль]  [ЛС] 

helloween

Штурман

Пост 19-Янв-2013 02:05 (спустя 3 часа)

[Q] 

[Профиль]  [ЛС] 

g.g.s.

Морской Волк

Пост 19-Янв-2013 10:51 (спустя 8 часов)

[Q] 

[Профиль]  [ЛС] 

Goga666

Шкипер

324

Пост 19-Янв-2013 12:43 (спустя 1 час 52 минуты)

[Q] 

О, это же Лицензия, супер забираю, бочка в трюме
[Профиль]  [ЛС] 

mitrich_pv

Корсар

Пост 19-Янв-2013 13:14 (спустя 30 минут)

[Q] 

Спасибо, посмотрим!

_________________
И хоть иду я долиною скорби, не убоюсь я зла, ибо я и есть самая злобная тварь в этой долине...
[Профиль]  [ЛС] 

JonSon1502

Лоцман

Пост 19-Янв-2013 15:35 (спустя 2 часа 21 минута)

[Q] 

[Профиль]  [ЛС] 

kisu

Гроза морей

Пост 19-Янв-2013 15:47 (спустя 12 минут)

[Q] 

как мульт?
[Профиль]  [ЛС] 

Dazdranargon

Флибустьер

Пост 19-Янв-2013 18:52 (спустя 3 часа)

[Q] 


_________________

[Профиль]  [ЛС] 

slavix

Корсар

Пост 22-Янв-2013 18:11 (спустя 2 дня 23 часа)

[Q] 

не очень
[Профиль]  [ЛС] 

genaev82

Шкипер

Пост 22-Янв-2013 22:27 (спустя 4 часа)

[Q] 

[Профиль]  [ЛС] 
Показать сообщения:    
Ответить на тему

Текущее время: Сегодня 22:31

Часовой пояс: GMT + 4



Вы не можете начинать темы
Вы не можете отвечать на сообщения
Вы не можете редактировать свои сообщения
Вы не можете удалять свои сообщения
Вы не можете голосовать в опросах
Вы не можете прикреплять файлы к сообщениям
Вы не можете скачивать файлы

▼ Вниз