ML
     
  Уважаемый Гость!
Вы можете поддержать проект и зарегистрироваться у наших партнеров - онлайн-стратегия MyLands. При регистрации в игре Вы получите код, который сможете активировать после регистрации на pirat.ca и получить 1000 дублонов.

Ваш код:
e6008d9811a0b6a1393c3dc51ecd7bc35637bc21
 
     

Братва из джунглей / Delhi Safari (Никхил Адвани / Nikhil Advani) [2012 г., семейный, мюзикл, мультфильм, DVDRip] MVO

Ответить на тему
 
Автор
Сообщение

Пост 24-Янв-2013 21:24

[Q] 

AGKRus36

-Братва из джунглей / Delhi Safari-«Давно не были в джунглях? Тогда мы идем к вам!»- Производство: Индия / Krayon Pictures
Режиссер: Никхил Адвани / Nikhil Advani
Жанр: семейный, мюзикл, мультфильм
Год выпуска: 2012 г.
Продолжительность: 01:32:37
Мировая премьера: 19 октября 2012
Российская премьера: 21 марта 2013, «Top Film Distribution»
Перевод: Любительский (многоголосый, закадровый)
В ролях:: Говинда, Акшай Кханна, Урмила Матондкар, Боман Ирани, Сунил Шетти, Шиварна Митра, Свини Кхера, Саурабх Шукла, Прем Чопра, Санджай Мишра
Роли озвучивали: Александр Нелюбин, Андрей Хомяков, Ирина Грачева, Марина Комчарукова, Анастасия Снегирева и Николай Ерофеев-Описание: Животные — обитатели национального парка возле Бомбея — встречают яркое солнечное утро под пение птиц. И вдруг идиллическую картинку дикой природы нарушает страшный грохот. Это, круша все на своем пути, джунгли атакует человек на бульдозере. На месте прекрасной рощи люди водружают табличку: здесь идет строительство жилого комплекса. Смертельно напуганные звери ночью собираются на совет. Юный леопард Юви горячо убеждает взрослых не бросать свои жилища. «Горячая голова» воин-обезьяна, Бахранжи, готов объявить смертельную войну незваным гостям, но Гуру в области конфликтологии, медведь Багга предлагает договориться с людьми по-хорошему. Одомашненный говорящий попугай Алекс решает присоединиться к друзьям, чтобы выступить переводчиком.-Сэмпл IMDB КиноПоиск
Качество видео: DVDRip
Контейнер: AVI
Видео кодек: XviD
Аудио кодек: AC3
Видео: 720x304 (2.35:1), 23.976 fps, XviD build 50 ~1784 kbps avg, 0.34 bit/pixel
Аудио: 48 kHz, AC3 Dolby Digital, 3/2 (L,C,R,l,r) + LFE ch, ~448 kbps
Cубтитры: отсутствуют
F:\Братва из джунглей\Delhi.Safari.2012.Р.DVDRip.avi
General
Complete name : F:\Братва из джунглей\Delhi.Safari.2012.Р.DVDRip.avi
Format : AVI
Format/Info : Audio Video Interleave
File size : 1.45 GiB
Duration : 1h 32mn
Overall bit rate : 2 241 Kbps
Writing application : VirtualDubModRus 1.5.10.2 (build 2542/release)
Writing library : VirtualDubMod build 2542/release
Video #0
ID : 0
Format : MPEG-4 Visual
Format profile : Advanced [email protected]
Format settings, BVOP : 3
Format settings, QPel : No
Format settings, GMC : No warppoints
Format settings, Matrix : Default (MPEG)
Codec ID : XVID
Codec ID/Hint : XviD
Duration : 1h 32mn
Bit rate : 1 784 Kbps
Width : 720 pixels
Height : 304 pixels
Display aspect ratio : 2.35:1
Frame rate : 23.976 fps
Color space : YUV
Chroma subsampling : 4:2:0
Bit depth : 8 bits
Scan type : Progressive
Compression mode : Lossy
Bits/(Pixel*Frame) : 0.340
Stream size : 1.15 GiB (80%)
Writing library : XviD 1.2.1 (UTC 2008-12-04)
Audio #1
ID : 1
Format : AC-3
Format/Info : Audio Coding 3
Mode extension : CM (complete main)
Format settings, Endianness : Big
Codec ID : 2000
Duration : 1h 32mn
Bit rate mode : Constant
Bit rate : 448 Kbps
Channel(s) : 6 channels
Channel positions : Front: L C R, Side: L R, LFE
Sampling rate : 48.0 KHz
Bit depth : 16 bits
Compression mode : Lossy
Stream size : 297 MiB (20%)
Alignment : Split accross interleaves
Interleave, duration : 42 ms (1.00 video frame)
Interleave, preload duration : 500 ms
Download / Скачать

Хотите скачать бесплатно? Зарегистрируйтесь на сайте (ссылка на регистрацию). Pirat.ca - самый быстрый торрент трекер в рунете!

Как скачивать  ·   Что такое торрент  ·   Рейтинг и ограничения



Последний раз редактировалось: AGKRus36 (2013-01-24 22:05), всего редактировалось 1 раз

Пост 24-Янв-2013 22:11 (спустя 46 минут)

Топик был перенесен из форума Мультфильмы (Трюм) в форум Новинки (HD|DVD|BD|TV|SAT|PDTV| - Rips)

erchine
 

Seva grig

Лоцман

Пост 24-Янв-2013 22:40 (спустя 1 час 15 минут)

[Q] 

Списибо!!
[Профиль]  [ЛС] 

Fey

Юнга

Пост 25-Янв-2013 00:26 (спустя 1 час 45 минут)

[Q] 

А почему такая маленькая скорость пишут что 1 час а можно по быстрее дать скорость?
[Профиль]  [ЛС] 

Bulgarin1

Шкипер

Пост 25-Янв-2013 10:11 (спустя 9 часов)

[Q] 

Становлюсь на раздачу круглосуточно
[Профиль]  [ЛС] 

polozm

Легенда

Пост 25-Янв-2013 15:47 (спустя 5 часов)

[Q] 

Индийский мульт? dj be bm Спасибо!!!

_________________
mac mini -2.0 GHz Intel Core i7/ 8 GB DDR3. /Intel HD 3000(512mb)OS X 10.9 Mavericks
[Профиль]  [ЛС] 

polozm

Легенда

Пост 25-Янв-2013 20:51 (спустя 5 часов)

[Q] 

посмотрел с дочкой. ca только для любителей индуского кино!!!!И для тех кто хочет чтобы дети выросли любителями разных -джими,джими.ача,ача bo .Сценарий чисто индийский! Хотя нарисован вроде нормально bu ca очень жалею о просмотре ak dd вляпался в индусятину fg

_________________
mac mini -2.0 GHz Intel Core i7/ 8 GB DDR3. /Intel HD 3000(512mb)OS X 10.9 Mavericks
[Профиль]  [ЛС] 

СерВолк

Корсар

Пост 25-Янв-2013 21:39 (спустя 47 минут)

[Q] 

Мадагаскар по индийски? bj
[Профиль]  [ЛС] 

odeloido

Штурман

Пост 25-Янв-2013 23:29 (спустя 1 час 50 минут)

[Q] 

я не смог досмотреть) мульт до 6 лет.
[Профиль]  [ЛС] 

Aleks44

Гроза морей

Пост 26-Янв-2013 03:44 (спустя 4 часа)

[Q] 

Дубляж отстойный да и мульт не очень
[Профиль]  [ЛС] 

polozm

Легенда

Пост 26-Янв-2013 09:12 (спустя 5 часов)

[Q] 

312454я не смог досмотреть) мульт до 6 лет.
Тоже так подумал сначала bm до сцены где режиссер тянет актрису к своему бассейну и втирает ей что нужно раздеться догола для пробы на роль do попутно лапая ее и пытаясь поцеловать aw

_________________
mac mini -2.0 GHz Intel Core i7/ 8 GB DDR3. /Intel HD 3000(512mb)OS X 10.9 Mavericks
[Профиль]  [ЛС] 

alexsey

Корсар

77

Пост 26-Янв-2013 10:58 (спустя 1 час 45 минут)

[Q] 

[Профиль]  [ЛС] 

slavix

Корсар

Пост 26-Янв-2013 14:55 (спустя 3 часа)

[Q] 

мульт г...
[Профиль]  [ЛС] 

Runi21

Флибустьер

46

Пост 28-Янв-2013 11:49 (спустя 1 день 20 часов)

[Q] 


_________________
[Профиль]  [ЛС] 

sergeev_igor1977

Морской Волк

Пост 28-Янв-2013 13:03 (спустя 1 час 13 минут)

[Q] 

[Профиль]  [ЛС] 

Simsim

Морской Волк

Пост 13-Апр-2013 13:07 (спустя 2 месяца 16 дней)

[Q] 

спасибо!
[Профиль]  [ЛС] 

valsum

Лоцман

Пост 06-Июн-2013 12:40 (спустя 1 месяц 22 дня)

[Q] 

[Профиль]  [ЛС] 
Показать сообщения:    
Ответить на тему

Текущее время: Сегодня 02:03

Часовой пояс: GMT + 4



Вы не можете начинать темы
Вы не можете отвечать на сообщения
Вы не можете редактировать свои сообщения
Вы не можете удалять свои сообщения
Вы не можете голосовать в опросах
Вы не можете прикреплять файлы к сообщениям
Вы не можете скачивать файлы

▼ Вниз