ML
     
  Уважаемый Гость!
Вы можете поддержать проект и зарегистрироваться у наших партнеров - онлайн-стратегия MyLands. При регистрации в игре Вы получите код, который сможете активировать после регистрации на pirat.ca и получить 1000 дублонов.

Ваш код:
5f4e94775bc0501caff7b254e79328d304c817d9
 
     

Монстры на каникулах / Hotel Transylvania (Геннадий Тартаковский / Gennady Tartakovsky) [2012 г., мультфильм, комедия, семейный, HDRip] Dub [Лицензия]

Ответить на тему
 
Автор
Сообщение

Пост 26-Янв-2013 13:07

[Q] 

ara1205

-Монстры на каникулах / Hotel Transylvania-- Производство: США
Год выпуска: 2012 г.
Жанр: мультфильм, комедия, семейный
Продолжительность: 01:31:31
Дата выхода DVD: 29 января 2013
Перевод: Профессиональный (полное дублирование) [Лицензия]-Режиссер: Геннадий Тартаковский / Gennady Tartakovsky-Описание: Граф Дракула для себя и своей любимой дочки построил хорошо укрытый от посторонних глаз отель, куда монстры со всего света приезжают отдохнуть от семейных забот, повседневной суеты и, конечно… людей. Но вездесущие американские туристы проникают и сюда.- -Качество видео: HDRip
Контейнер: AVI
Видео кодек: XviD
Аудио кодек: AC3
Видео: 720x384, 23,976 fps, 1820 kbps avg, 0.274 bit/pixel
Аудио: 48 kHz, AC3 Dolby Digital, 3/2 (L,C,R,l,r) + LFE ch, ~448 kbps
Cубтитры: отсутствуют-
Общее
Полное имя : C:\Users\Ромик\Desktop\Монстры на каникулах\Monstri.na.Kanikulah.2012.HDRip.[pira.ca].avi
Формат : AVI
Формат/Информация : Audio Video Interleave
Размер файла : 1,46 Гбайт
Продолжительность : 1 ч. 31 м.
Общий поток : 2277 Кбит/сек
Название фильма : Monstri.na.Kanikulah.2012.HDRip.[pira.ca]
Программа кодирования : VirtualDubMod 1.5.10.2 (build 2540/release)
Видео
Идентификатор : 0
Формат : MPEG-4 Visual
Профиль формата : Advanced [email protected]
Параметр BVOP формата : 2
Параметр QPel формата : Нет
Параметр GMC формата : Без точки перехода
Параметр матрицы формата : Default (MPEG)
Идентификатор кодека : XVID
Идентификатор кодека/Подсказка : XviD
Продолжительность : 1 ч. 31 м.
Битрейт : 1820 Кбит/сек
Ширина : 720 пикселей
Высота : 384 пикселя
Соотношение сторон : 1,85:1
Частота кадров : 23,976 кадра/сек
Цветовое пространство : YUV
Субдискретизация насыщенности : 4:2:0
Битовая глубина : 8 бит
Тип развёртки : Прогрессивная
Метод сжатия : С потерями
Бит/(Пиксели*Кадры) : 0.274
Размер потока : 1,16 Гбайт (80%)
Библиотека кодирования : XviD 1.2.0.dev47 (UTC 2006-11-01)
Аудио
Идентификатор : 1
Формат : AC-3
Формат/Информация : Audio Coding 3
Расширение режима : CM (complete main)
Параметр Endianness формата : Big
Идентификатор кодека : 2000
Продолжительность : 1 ч. 31 м.
Вид битрейта : Постоянный
Битрейт : 448 Кбит/сек
Каналы : 6 каналов
Расположение каналов : Front: L C R, Side: L R, LFE
Частота : 48,0 КГц
Битовая глубина : 16 бит
Метод сжатия : С потерями
Размер потока : 293 Мбайт (20%)
Выравнивание : Разделение по промежуткам
Продолжительность промежутка : 42 мс. (1,00 видеокадр)
Время предзагрузки промежутка : 500 мс.
-
-
-
Download / Скачать

Хотите скачать бесплатно? Зарегистрируйтесь на сайте (ссылка на регистрацию). Pirat.ca - самый быстрый торрент трекер в рунете!

Как скачивать  ·   Что такое торрент  ·   Рейтинг и ограничения

ara1205 ®

69729

Пост 26-Янв-2013 13:09 (спустя 1 минута)

[Q] 

Разница данного рипа от всех предыдущих раздач в том что здесь 6-канальный Лицензионный звук
[Профиль]  [ЛС] 

slavix

Корсар

Пост 26-Янв-2013 14:30 (спустя 1 час 21 минута)

[Q] 

а видео в качестве не пострадало?
[Профиль]  [ЛС] 

svmaxus

Шкипер

Пост 26-Янв-2013 17:34 (спустя 3 часа)

[Q] 

[Профиль]  [ЛС] 

Demon198455

Шкипер

Пост 26-Янв-2013 18:36 (спустя 1 час 2 минуты)

[Q] 

[Профиль]  [ЛС] 

baltimor30

Морской Волк

Пост 26-Янв-2013 20:43 (спустя 2 часа 6 минут)

[Q] 

[Профиль]  [ЛС] 

spatun

Корсар

Пост 26-Янв-2013 21:20 (спустя 37 минут)

[Q] 

Мульт прикольный

_________________
[Профиль]  [ЛС] 

Bozo

Флибустьер

Пост 03-Фев-2013 16:52 (спустя 7 дней)

[Q] 

отличный мультфильм, посмотрели с удовольствием, спасибо )))
[Профиль]  [ЛС] 

Wonderwoman

Шкипер

Пост 03-Фев-2013 19:40 (спустя 2 часа 48 минут)

[Q] 


_________________
Правильно. Неправильно. Плохо. Хорошо. К чему вообще эти ярлыки? Неважно, как оценивают моё поведение другие, важно что я наслаждаюсь происходящим.
[Профиль]  [ЛС] 

Billy Bones

Шкипер

Пост 09-Фев-2013 21:06 (спустя 6 дней)

[Q] 

смешной ay
[Профиль]  [ЛС] 

YBbI de FiiS

Корсар

Пост 10-Фев-2013 10:33 (спустя 13 часов)

[Q] 

Благодарю, мульт супер
[Профиль]  [ЛС] 

Zmutant

Морской Волк

1

Пост 10-Фев-2013 18:30 (спустя 7 часов)

[Q] 

Мульт класс :)
[Профиль]  [ЛС] 

Jek@

Легенда

Пост 11-Фев-2013 04:30 (спустя 10 часов)

[Q] 

[Профиль]  [ЛС] 

yulya230784

Морской Волк

927

Пост 17-Фев-2013 19:26 (спустя 6 дней)

[Q] 

[Профиль]  [ЛС] 

rock_rebel

Корсар

227

Пост 23-Фев-2013 14:21 (спустя 5 дней)

[Q] 

спасибо

_________________
Здесь каждый гад хочет стать депутатом,
Чтоб ездить по странам и эмиратам,
А я хочу стать пулей в стволе,
Чтоб помнили гады всегда обо мне.
[Профиль]  [ЛС] 

rock_rebel

Корсар

227

Пост 25-Фев-2013 22:53 (спустя 2 дня 8 часов)

[Q] 

смотрел два раза.первый очень не внимательно,второй нормально. В первый раз понравился больше)))нормальный в принципе мульт. мне в целом понравился.

_________________
Здесь каждый гад хочет стать депутатом,
Чтоб ездить по странам и эмиратам,
А я хочу стать пулей в стволе,
Чтоб помнили гады всегда обо мне.
[Профиль]  [ЛС] 

shtulzzz

Корсар

Пост 26-Фев-2013 00:43 (спустя 1 час 49 минут)

[Q] 

спс
[Профиль]  [ЛС] 

U-858

Флибустьер

Пост 03-Мар-2013 13:48 (спустя 5 дней)

[Q] 

[Профиль]  [ЛС] 

ZaSlaneC

Штурман

Пост 10-Мар-2013 13:12 (спустя 6 дней)

[Q] 

Просто классный мульт, очень понравился. Спасибо раздающему.
[Профиль]  [ЛС] 

krab_

Лоцман

Пост 16-Мар-2013 13:41 (спустя 6 дней)

[Q] 

Спасибо!!!Отличный мультфильм
[Профиль]  [ЛС] 

Di VuLfi

Морской Волк

27

Пост 23-Мар-2013 01:58 (спустя 6 дней)

[Q] 


_________________
"ничто не истенно и все дозволено"
[Профиль]  [ЛС] 

succube

Шкипер

Пост 05-Апр-2013 03:16 (спустя 13 дней)

[Q] 

[Профиль]  [ЛС] 

U-858

Флибустьер

Пост 01-Фев-2014 16:06 (спустя 9 месяцев 26 дней)

[Q] 

!COOL! спасиб.
[Профиль]  [ЛС] 

bolobol

Корсар

110

Пост 02-Дек-2015 03:22 (спустя 1 год 10 месяцев)

[Q] 

смотрел вторую часть! забыл что в первой решил пересмотреть Супер!

_________________
[Профиль]  [ЛС] 

Андря

8405

Пост 02-Дек-2015 18:13 (спустя 14 часов)

[Q] 

классный мульт

_________________
Като Тешекика
[Профиль]  [ЛС] 
Показать сообщения:    
Ответить на тему

Текущее время: Сегодня 15:39

Часовой пояс: GMT + 4



Вы не можете начинать темы
Вы не можете отвечать на сообщения
Вы не можете редактировать свои сообщения
Вы не можете удалять свои сообщения
Вы не можете голосовать в опросах
Вы не можете прикреплять файлы к сообщениям
Вы не можете скачивать файлы

▼ Вниз