ML
     
  Уважаемый Гость!
Вы можете поддержать проект и зарегистрироваться у наших партнеров - онлайн-стратегия MyLands. При регистрации в игре Вы получите код, который сможете активировать после регистрации на pirat.ca и получить 1000 дублонов.

Ваш код:
5f4e94775bc0501caff7b254e79328d304c817d9
 
     

Храбрый плавник / Back to the Sea (Том Лу / Thom Lu) [2012 г., мультфильм, DVDRip] Dub [Лицензия]

Ответить на тему
 
Автор
Сообщение

Пост 04-Фев-2013 20:22

[Q] 

AGKRus36

-Храбрый плавник / Back to the Sea-«Приключения начинаются!»- Производство: Китай, Канада / Glory and Dream Studios, IndustryWorks Pictures
Режиссер: Том Лу / Thom Lu
Жанр: мультфильм
Год выпуска: 2012 г.
Продолжительность: 01:33:37-Мировая премьера: 27 января 2012
Российская премьера: 24 января 2013, «Кинопром»
Релиз на DVD: 5 февраля 2013, «Флагман-Трейд»
Релиз на Blu-Ray: 5 февраля 2013, «Флагман-Трейд»-Перевод: Профессиональный (полное дублирование) [Лицензия]
Роли озвучивали: Tим Карри, Марк Хэмилл, Том Кенни, Кристиан Слэйтер, Кэт Сауси, Мэттью Кинг-Описание: В прибрежных водах Нью-Йорка живет Кевин — маленькая летучая рыбка. Каждый день Кевин играет со своими друзьями и мечтает попасть на остров Барбадос, в королевство летучих рыб, но его родители считают эти мечты глупыми. Однажды, чтобы похвастаться, он отправляется к подводной Скале Славы, достать фамильную реликвию семьи — огромную жемчужину, и попадает в рыболовные сети. Кевин вместе с драгоценностью отправляется в аквариум рыбного ресторанчика, где его ждет страшная судьба — стать изысканным деликатесом. Другие обитатели аквариума верят в то, что исчезающие рыбы становятся людьми, поэтому ждут с нетерпением, когда за ними придут. Для того, чтобы спасти своих новых друзей от смерти и вернуться домой с фамильной жемчужиной, Кевину предстоит показать всю свою храбрость.-Сэмпл IMDB КиноПоиск
Качество видео: DVDRip
Контейнер: AVI
Видео кодек: XviD
Аудио кодек: AC3
Видео: 720x304 (2.37:1), 25 fps, XviD build 50 ~1640 kbps avg, 0.30 bit/pixel
Аудио: 48 kHz, AC3 Dolby Digital, 3/2 (L,C,R,l,r) + LFE ch, ~448 kbps
Cубтитры: отсутствуют
F:\Храбрый плавник\Back.to.the.Sea.2012.D.DVDRip.avi
General
Complete name : F:\Храбрый плавник\Back.to.the.Sea.2012.D.DVDRip.avi
Format : AVI
Format/Info : Audio Video Interleave
File size : 1.37 GiB
Duration : 1h 33mn
Overall bit rate : 2 098 Kbps
Writing application : VirtualDubMod 1.5.10.3 | www.virtualdub-fr.org || (build 2550/release)
Original source form/Name : Cartoon
Video #0
ID : 0
Format : MPEG-4 Visual
Format profile : Advanced [email protected]
Format settings, BVOP : 1
Format settings, QPel : No
Format settings, GMC : No warppoints
Format settings, Matrix : Custom
Codec ID : XVID
Codec ID/Hint : XviD
Duration : 1h 33mn
Bit rate : 1 640 Kbps
Width : 720 pixels
Height : 304 pixels
Display aspect ratio : 2.35:1
Frame rate : 25.000 fps
Color space : YUV
Chroma subsampling : 4:2:0
Bit depth : 8 bits
Scan type : Progressive
Compression mode : Lossy
Bits/(Pixel*Frame) : 0.300
Stream size : 1.07 GiB (78%)
Writing library : XviD 1.2.1 (UTC 2008-12-04)
Audio #1
ID : 1
Format : AC-3
Format/Info : Audio Coding 3
Mode extension : CM (complete main)
Format settings, Endianness : Big
Codec ID : 2000
Duration : 1h 33mn
Bit rate mode : Constant
Bit rate : 448 Kbps
Channel(s) : 6 channels
Channel positions : Front: L C R, Side: L R, LFE
Sampling rate : 48.0 KHz
Bit depth : 16 bits
Compression mode : Lossy
Stream size : 300 MiB (21%)
Alignment : Split accross interleaves
Interleave, duration : 40 ms (1.00 video frame)
Interleave, preload duration : 500 ms
Download / Скачать

Хотите скачать бесплатно? Зарегистрируйтесь на сайте (ссылка на регистрацию). Pirat.ca - самый быстрый торрент трекер в рунете!

Как скачивать  ·   Что такое торрент  ·   Рейтинг и ограничения

Пост 04-Фев-2013 21:37 (спустя 1 час 15 минут)

Топик был перенесен из форума Мультфильмы (Трюм) в форум Новинки (HD|DVD|BD|TV|SAT|PDTV| - Rips)

ara1205
 

vik238

Корсар

Пост 04-Фев-2013 22:39 (спустя 2 часа 16 минут)

[Q] 

ПОСМОТРИМ!!!
[Профиль]  [ЛС] 

Jek@

Легенда

Пост 05-Фев-2013 02:30 (спустя 3 часа)

[Q] 

[Профиль]  [ЛС] 

polozm

Легенда

Пост 05-Фев-2013 09:38 (спустя 7 часов)

[Q] 

Спасибо!!!Качаю.Но наверно фигня

_________________
mac mini -2.0 GHz Intel Core i7/ 8 GB DDR3. /Intel HD 3000(512mb)OS X 10.9 Mavericks
[Профиль]  [ЛС] 

slavix

Корсар

Пост 05-Фев-2013 20:10 (спустя 10 часов)

[Q] 

фигня
[Профиль]  [ЛС] 

polozm

Легенда

Пост 06-Фев-2013 11:28 (спустя 15 часов)

[Q] 

318453фигня
aa точно!

_________________
mac mini -2.0 GHz Intel Core i7/ 8 GB DDR3. /Intel HD 3000(512mb)OS X 10.9 Mavericks
[Профиль]  [ЛС] 

RedHawk

Флибустьер

Пост 11-Фев-2013 15:39 (спустя 5 дней)

[Q] 

фигня и чушь...
[Профиль]  [ЛС] 
Показать сообщения:    
Ответить на тему

Текущее время: Сегодня 15:37

Часовой пояс: GMT + 4



Вы не можете начинать темы
Вы не можете отвечать на сообщения
Вы не можете редактировать свои сообщения
Вы не можете удалять свои сообщения
Вы не можете голосовать в опросах
Вы не можете прикреплять файлы к сообщениям
Вы не можете скачивать файлы

▼ Вниз