ML
     
  Уважаемый Гость!
Вы можете поддержать проект и зарегистрироваться у наших партнеров - онлайн-стратегия MyLands. При регистрации в игре Вы получите код, который сможете активировать после регистрации на pirat.ca и получить 1000 дублонов.

Ваш код:
73640f24f8a0f579e128ea7346fd2db2b1009143
 
     

Гладиаторы Рима / Gladiatori di Roma (Иджинио Страффи / Iginio Straffi) [2012 г., мультфильм, комедия, приключения, DVDRip] Dub [Лицензия]

Страницы :  1, 2, 3  След.

Ответить на тему
 
Автор
Сообщение

Пост 09-Фев-2013 02:06

[Q] 

AGKRus36

-Гладиаторы Рима / Gladiatori di Roma-- Производство: Италия / Rainbow S.r.l See
Режиссер: Иджинио Страффи / Iginio Straffi
Жанр: мультфильм, комедия, приключения
Год выпуска: 2012 г.
Продолжительность: 01:27:03-Мировая премьера: 18 октября 2012
Российская премьера: 7 февраля 2013, «Люксор»-Перевод: Профессиональный (полное дублирование) [Лицензия]
Роли озвучивали: Лука Арджентеро, Лаура Кьятти, Джулианна Хаф, Белен Родригес-Описание: Страшное извержение вулкана разрушает город Помпеи, и маленький Тим остается сиротой. Его спаситель, генерал Кирон, отправляет Тима в школу гладиаторов, но юный лентяй упорно не желает становиться бойцом. Повзрослев, Тим влюбляется в красавицу Лючиллу. Но чтобы покорить её сердце, нужно стать настоящим героем. Прекрасная Диана, богиня охоты и мастер по гладиаторским боям, берется за тренировки Тима перед первым боем. Но получится ли у Тима победить самого себя и стать настоящим мужчиной?-Сэмпл IMDB КиноПоискКачество видео: DVDRip
Контейнер: AVI
Видео кодек: XviD
Аудио кодек: AC3
Видео: 720x304 (2.35:1), 25 fps, XviD build 50 ~1709 kbps avg, 0.31 bit/pixel
Аудио : 48 kHz, AC3 Dolby Digital, 3/2 (L,C,R,l,r) + LFE ch, ~448 kbps
Cубтитры: отсутствуют
D:\Фильмы\Гладиаторы Рима\Gladiatory.Rima.2012.D.DVDRip.avi
General
Complete name : D:\Фильмы\Гладиаторы Рима\Gladiatory.Rima.2012.D.DVDRip.avi
Format : AVI
Format/Info : Audio Video Interleave
File size : 1.37 GiB
Duration : 1h 30mn
Overall bit rate : 2 167 Kbps
Writing application : VirtualDubMod 1.5.10.3 | www.virtualdub-fr.org || (build 2550/release)
Writing library : VirtualDubMod build 2550/release
Video #0
ID : 0
Format : MPEG-4 Visual
Format profile : Advanced [email protected]
Format settings, BVOP : 2
Format settings, QPel : No
Format settings, GMC : No warppoints
Format settings, Matrix : Default (MPEG)
Codec ID : XVID
Codec ID/Hint : XviD
Duration : 1h 30mn
Bit rate : 1 709 Kbps
Width : 720 pixels
Height : 304 pixels
Display aspect ratio : 2.35:1
Frame rate : 25.000 fps
Color space : YUV
Chroma subsampling : 4:2:0
Bit depth : 8 bits
Scan type : Progressive
Compression mode : Lossy
Bits/(Pixel*Frame) : 0.312
Stream size : 1.08 GiB (79%)
Writing library : XviD 1.2.1 (UTC 2008-12-04)
Audio #1
ID : 1
Format : AC-3
Format/Info : Audio Coding 3
Mode extension : CM (complete main)
Format settings, Endianness : Big
Codec ID : 2000
Duration : 1h 30mn
Bit rate mode : Constant
Bit rate : 448 Kbps
Channel(s) : 6 channels
Channel positions : Front: L C R, Side: L R, LFE
Sampling rate : 48.0 KHz
Bit depth : 16 bits
Compression mode : Lossy
Stream size : 289 MiB (21%)
Alignment : Split accross interleaves
Interleave, duration : 40 ms (1.00 video frame)
Interleave, preload duration : 500 ms
Торрент-файл перезалит в связи с появлением в сети Лицензии
Download / Скачать

Хотите скачать бесплатно? Зарегистрируйтесь на сайте (ссылка на регистрацию). Pirat.ca - самый быстрый торрент трекер в рунете!

Как скачивать  ·   Что такое торрент  ·   Рейтинг и ограничения



Последний раз редактировалось: AGKRus36 (2013-02-17 10:28), всего редактировалось 7 раз(а)

platon18

Гроза морей

Пост 11-Фев-2013 19:16 (спустя 2 дня 17 часов)

[Q] 

[Профиль]  [ЛС] 

Pirat177

Корсар

Пост 11-Фев-2013 20:18 (спустя 1 час 2 минуты)

[Q] 

[Профиль]  [ЛС] 

Пост 11-Фев-2013 23:00 (спустя 2 часа 41 минута)

Топик был перенесен из форума Новинки (CamRip/TS) в форум Новинки (HD|DVD|BD|TV|SAT|PDTV| - Rips)

ara1205
 

dimonpa

Гроза морей

Пост 12-Фев-2013 06:25 (спустя 10 часов)

[Q] 

[Профиль]  [ЛС] 

recon811

Шкипер

Пост 13-Фев-2013 22:47 (спустя 1 день 16 часов)

[Q] 

[Профиль]  [ЛС] 

vlad7022

Морской Волк

Пост 14-Фев-2013 01:19 (спустя 2 часа 31 минута)

[Q] 

[Профиль]  [ЛС] 

Dontist

Шкипер

Пост 14-Фев-2013 13:18 (спустя 11 часов)

[Q] 

Спасибо!
[Профиль]  [ЛС] 

recon811

Шкипер

Пост 14-Фев-2013 21:47 (спустя 8 часов)

[Q] 

[Профиль]  [ЛС] 

vik238

Корсар

Пост 14-Фев-2013 22:11 (спустя 24 минуты)

[Q] 

[Профиль]  [ЛС] 

Dimon777

Шкипер

Пост 15-Фев-2013 15:34 (спустя 17 часов)

[Q] 

[Профиль]  [ЛС] 

kinstintin

Гроза морей

Пост 15-Фев-2013 16:25 (спустя 51 минута)

[Q] 

[Профиль]  [ЛС] 

red507

Лоцман

Пост 16-Фев-2013 19:20 (спустя 1 день 2 часа)

[Q] 

[Профиль]  [ЛС] 

TheSwan

Корсар

Пост 17-Фев-2013 12:13 (спустя 16 часов)

[Q] 

[Профиль]  [ЛС] 

AGKRus36 ®

37905

Пост 17-Фев-2013 12:52 (спустя 39 минут)

[Q] 

Торрент-файл перезалит в связи с появлением в сети Лицензии
Приятного просмотра!!!

_________________
Мои раздачи
[Профиль]  [ЛС] 

-RIDDICK-

Штурман

Пост 17-Фев-2013 13:25 (спустя 32 минуты)

[Q] 

[Профиль]  [ЛС] 

sta1ler

Корсар

3

Пост 17-Фев-2013 13:57 (спустя 32 минуты)

[Q] 

Благодарю

_________________
[Профиль]  [ЛС] 

sergLyghin

Корсар

162

Пост 17-Фев-2013 19:31 (спустя 5 часов)

[Q] 

[Профиль]  [ЛС] 

g.g.s.

Морской Волк

Пост 17-Фев-2013 19:48 (спустя 17 минут)

[Q] 

[Профиль]  [ЛС] 

Aleks44

Гроза морей

Пост 17-Фев-2013 20:44 (спустя 55 минут)

[Q] 

Самые прикольные в мультике это малыши, да тренер у Тима класс, в общем средний мульт
[Профиль]  [ЛС] 

wakal

Гроза морей

2987

Пост 18-Фев-2013 00:39 (спустя 3 часа)

[Q] 


_________________
[Профиль]  [ЛС] 

Фаза

Шкипер

Пост 18-Фев-2013 03:28 (спустя 2 часа 49 минут)

[Q] 

Раздающим респект!!
[Профиль]  [ЛС] 

kolking89

Морской Волк

Пост 18-Фев-2013 04:02 (спустя 34 минуты)

[Q] 

хоть мульт и не очень, но все таки смотреть можно) спс))))
[Профиль]  [ЛС] 

Kotangens

Шкипер

241

Пост 18-Фев-2013 14:34 (спустя 10 часов)

[Q] 


Сначала было интересно, фильм на троечку, на 1 раз... да и то...

_________________
Чтобы не было залётов - изучай район полётов!
[Профиль]  [ЛС] 

dr.archie80

Морской Волк

Пост 18-Фев-2013 16:21 (спустя 1 час 47 минут)

[Q] 

[Профиль]  [ЛС] 

Pippo48

Корсар

Пост 19-Фев-2013 10:08 (спустя 17 часов)

[Q] 

заценим
[Профиль]  [ЛС] 

edik32

Морской Волк

Пост 19-Фев-2013 12:51 (спустя 2 часа 42 минуты)

[Q] 

[Профиль]  [ЛС] 

peugeot

Морской Волк

Пост 19-Фев-2013 18:59 (спустя 6 часов)

[Q] 

спасибки!!!! забираю
[Профиль]  [ЛС] 

ZzX

Лоцман

Пост 19-Фев-2013 19:38 (спустя 38 минут)

[Q] 

Не впечатлило ((
[Профиль]  [ЛС] 

semdic

Морской Волк

Пост 19-Фев-2013 19:42 (спустя 4 минуты)

[Q] 

Раздающему респект!
[Профиль]  [ЛС] 
Показать сообщения:    
Ответить на тему

Текущее время: Сегодня 22:30

Часовой пояс: GMT + 4



Вы не можете начинать темы
Вы не можете отвечать на сообщения
Вы не можете редактировать свои сообщения
Вы не можете удалять свои сообщения
Вы не можете голосовать в опросах
Вы не можете прикреплять файлы к сообщениям
Вы не можете скачивать файлы

▼ Вниз