ML
     
  Уважаемый Гость!
Вы можете поддержать проект и зарегистрироваться у наших партнеров - онлайн-стратегия MyLands. При регистрации в игре Вы получите код, который сможете активировать после регистрации на pirat.ca и получить 1000 дублонов.

Ваш код:
a978488e62322cd72e113ab723b8a7fdc10eb9b9
 
     

Магазин Самоубийств / Le magasin des suicides (Патрис Леконт / Patrice Leconte) [2012 г., мультфильм, мюзикл, комедия, HDRip] DVO

Ответить на тему
 
Автор
Сообщение

Пост 23-Фев-2013 12:02

[Q] 

aiden57

Гроза морей

-Магазин Самоубийств / Le magasin des suicides-- Производство: Франция, Канада, Бельгия
Режиссер: Патрис Леконт / Patrice Leconte
Жанр: мультфильм, мюзикл, комедия
Год выпуска: 2012 г.
Продолжительность: 01:19:14
Мировая премьера: 24 мая 2012
Российская премьера: 7 марта 2013
Перевод: Профессиональный (двухголосый закадровый)
Роли озвучивали: Бернар Алан, Изабель Спад, Кейси Моттет Кляйн, Изабель Джани, Лоран Жандрон, Пьер-Франсуа Мартен-Лаваль, Эрик Метайе, Жак Мату, Юрбен Канселье, Паскаль Парментье-Описание: В неком городе, где жизнь невероятно уныла и невыносима, на протяжении многих поколений процветает магазин, который торгует всем необходимым для совершения самоубийств. Всё идёт замечательно до тех пор, пока в семье владельца этого магазина не рождается Алан — жизнелюбивый и весёлый малыш.-Сэмпл IMDB КиноПоиск
Качество видео: HDRip
Контейнер: AVI
Видео кодек: XviD
Аудио кодек: AC3
Видео: XVID, 720x384, 23.976023, 2009 кб/сек 0.303 bit/pixel
Аудио: 48 kHz, AC3 Dolby Digital, 3/2 (L,C,R,l,r) + LFE ch, ~448 kbps
Cубтитры: отсутствуют
General
Complete name : G:\Торренты\aiden57\Магазин самоубийств\Магазин самоубийств.HDRip.P.2012.avi
Format : AVI
Format/Info : Audio Video Interleave
File size : 1.37 GiB
Duration : 1h 19mn
Overall bit rate : 2 467 Kbps
Writing application : VirtualDubMod 1.5.10.2 (build 2540/release)
Writing library : VirtualDubMod build 2540/release
Video
ID : 0
Format : MPEG-4 Visual
Format profile : Advanced [email protected]
Format settings, BVOP : 2
Format settings, QPel : No
Format settings, GMC : No warppoints
Format settings, Matrix : Default (H.263)
Muxing mode : Packed bitstream
Codec ID : XVID
Codec ID/Hint : XviD
Duration : 1h 19mn
Bit rate : 2 009 Kbps
Width : 720 pixels
Height : 384 pixels
Display aspect ratio : 1.85:1
Frame rate : 24.000 fps
Color space : YUV
Chroma subsampling : 4:2:0
Bit depth : 8 bits
Scan type : Progressive
Compression mode : Lossy
Bits/(Pixel*Frame) : 0.303
Stream size : 1.11 GiB (81%)
Writing library : XviD 1.2.0.dev47 (UTC 2006-11-01)
Audio
ID : 1
Format : AC-3
Format/Info : Audio Coding 3
Mode extension : CM (complete main)
Format settings, Endianness : Big
Codec ID : 2000
Duration : 1h 19mn
Bit rate mode : Constant
Bit rate : 448 Kbps
Channel(s) : 6 channels
Channel positions : Front: L C R, Side: L R, LFE
Sampling rate : 48.0 KHz
Bit depth : 16 bits
Compression mode : Lossy
Stream size : 254 MiB (18%)
Alignment : Split accross interleaves
Interleave, duration : 42 ms (1.00 video frame)
Interleave, preload duration : 500 ms
Download / Скачать

Хотите скачать бесплатно? Зарегистрируйтесь на сайте (ссылка на регистрацию). Pirat.ca - самый быстрый торрент трекер в рунете!

Как скачивать  ·   Что такое торрент  ·   Рейтинг и ограничения

leonid.

Флибустьер

Пост 23-Фев-2013 12:19 (спустя 17 минут)

[Q] 

спасибо!
[Профиль]  [ЛС] 

erchine

44808

Пост 23-Фев-2013 13:24 (спустя 1 час 4 минуты)

[Q] 

T - временная - недокроп.
[Профиль]  [ЛС] 

Пост 23-Фев-2013 13:24 (спустя 35 секунд)

Топик был перенесен из форума Мультфильмы (Трюм) в форум Новинки (HD|DVD|BD|TV|SAT|PDTV| - Rips)

erchine
 

TheSwan

Корсар

Пост 23-Фев-2013 14:32 (спустя 1 час 8 минут)

[Q] 

[Профиль]  [ЛС] 

бабуля

Лоцман

Пост 23-Фев-2013 15:38 (спустя 1 час 5 минут)

[Q] 

[Профиль]  [ЛС] 

Datchanin

Корсар

36

Пост 23-Фев-2013 20:09 (спустя 4 часа)

[Q] 

Надо посмотреть

_________________
[Профиль]  [ЛС] 

СерВолк

Корсар

Пост 24-Фев-2013 16:33 (спустя 20 часов)

[Q] 

328585Надо посмотреть
скорее послушать )) мюзикл ведь ))
[Профиль]  [ЛС] 

dimonpa

Гроза морей

Пост 25-Фев-2013 07:36 (спустя 15 часов)

[Q] 

[Профиль]  [ЛС] 

alexis164

Морской Волк

Пост 25-Фев-2013 19:50 (спустя 12 часов)

[Q] 

Отличный мультфильм,весьма порадовало! Так живо и бодро про самоубийства давно никто не говорил,а тема,надо признать, весьма-весьма злободневная... В общем,кино в "копилку"!
Единственное - очень не хватает субтитров с переводом песен! Будьте добры,добавьте их к раздаче,ежели таковые имеются :)
Низкий поклон трекеру!
[Профиль]  [ЛС] 

Kosmatos

Корсар

Пост 26-Фев-2013 16:01 (спустя 20 часов)

[Q] 

....действительно злободневно... по новому закону его м могут счесть призывом к самоубийству и запретить))))
[Профиль]  [ЛС] 

Dimon777

Шкипер

Пост 26-Фев-2013 22:45 (спустя 6 часов)

[Q] 

[Профиль]  [ЛС] 

Atis

Шкипер

Пост 13-Мар-2013 20:17 (спустя 14 дней)

[Q] 


а мульт... идея хороша, но исполнение... слишком много песен, его бы раза в два сократить и было б норм

_________________
Don't piss me off
[Профиль]  [ЛС] 

was_born_to_be_a_cat

Штурман

Пост 14-Мар-2013 03:53 (спустя 7 часов)

[Q] 

[Профиль]  [ЛС] 

vik238

Корсар

Пост 15-Мар-2013 21:34 (спустя 1 день 17 часов)

[Q] 

[Профиль]  [ЛС] 

jocose

Морской Волк

Пост 16-Мар-2013 00:11 (спустя 2 часа 37 минут)

[Q] 

О, мультик! щас заценим)))
[Профиль]  [ЛС] 

EDIK44

Морской Волк

3

Пост 26-Апр-2013 21:50 (спустя 1 месяц 10 дней)

[Q] 

Спасибо
[Профиль]  [ЛС] 

Dr.Furer

Штурман

Пост 09-Сен-2013 20:37 (спустя 4 месяца 12 дней)

[Q] 

Лови бочку Супер! Автору респект!!!
[Профиль]  [ЛС] 

qweer

Пост 23-Мар-2015 05:41 (спустя 1 год 6 месяцев)

[Q] 

как говорит мой сосед-вотета да!!!! Лови бочку
[Профиль]  [ЛС] 
Показать сообщения:    
Ответить на тему

Текущее время: Сегодня 22:11

Часовой пояс: GMT + 4



Вы не можете начинать темы
Вы не можете отвечать на сообщения
Вы не можете редактировать свои сообщения
Вы не можете удалять свои сообщения
Вы не можете голосовать в опросах
Вы не можете прикреплять файлы к сообщениям
Вы не можете скачивать файлы

▼ Вниз