ML
     
  Уважаемый Гость!
Вы можете поддержать проект и зарегистрироваться у наших партнеров - онлайн-стратегия MyLands. При регистрации в игре Вы получите код, который сможете активировать после регистрации на pirat.ca и получить 1000 дублонов.

Ваш код:
c89b4b6523eaac3173e9a9c062ac1a19db575961
 
     

Тарзан-размазня / Gummi T (Майкл Хэгнер / Michael Hegner) [2012 г., мультфильм, комедия, семейный, HDRip] MVO

Ответить на тему
 
Автор
Сообщение

Пост 23-Фев-2013 14:04

[Q] 

aiden57

Гроза морей

-Тарзан-размазня / Gummi T-- Производство: Дания
Режиссер: Майкл Хэгнер / Michael Hegner
Жанр: мультфильм, комедия, семейный
Год выпуска: 2012 г.
Продолжительность: 01:17:22
Мировая премьера: 16 мая 2012
Перевод: Профессиональный (многоголосый, закадровый)
Роли озвучивали: Бьярне Хенриксен Николай Коперникус Туре Линдхардт Карен-Лисе Мюнстер Сесиль Стенспил-Описание: Ваня — типичный лузер и неудачник. Над ним измываются в школе и пилят дома. Однажды он решает измениться и тут же встречает… самую настоящую ведьму. Та соглашается исполнить любое его желание. Парень выбирает суперсилу. Но колдунья оказалась непутевой и выполнила просьбу всего на один день! Можно ли изменить свою жизнь за 24 часа, обладая шикарной внешностью? Наш маленький Геракл Ваня ответит на этот вопрос!-Сэмпл IMDB КиноПоиск
Качество видео: HDRip
Контейнер: AVI
Видео кодек: XviD
Аудио кодек: AC3
Видео: 720x384 (1.88:1), 25 fps, XviD MPEG-4 ~2335 kbps avg, 0.34 bit/pixel
Аудио: 48 kHz, AC3 Dolby Digital, 2/0 (L,R) ch, ~192 kbps
Cубтитры: отсутствуют
General
Complete name : G:\Торренты\aiden57\Gummi T\Tarzan razmaznyi.2012.HDRip.avi
Format : AVI
Format/Info : Audio Video Interleave
File size : 1.37 GiB
Duration : 1h 17mn
Overall bit rate : 2 537 Kbps
Video
ID : 0
Format : MPEG-4 Visual
Format profile : Advanced [email protected]
Format settings, BVOP : 1
Format settings, QPel : No
Format settings, GMC : No warppoints
Format settings, Matrix : Default (MPEG)
Muxing mode : Packed bitstream
Codec ID : XVID
Codec ID/Hint : XviD
Duration : 1h 17mn
Bit rate : 2 335 Kbps
Width : 720 pixels
Height : 384 pixels
Display aspect ratio : 1.85:1
Frame rate : 25.000 fps
Color space : YUV
Chroma subsampling : 4:2:0
Bit depth : 8 bits
Scan type : Progressive
Compression mode : Lossy
Bits/(Pixel*Frame) : 0.338
Stream size : 1.26 GiB (92%)
Writing library : XviD 64
Audio
ID : 1
Format : AC-3
Format/Info : Audio Coding 3
Mode extension : CM (complete main)
Format settings, Endianness : Big
Codec ID : 2000
Duration : 1h 17mn
Bit rate mode : Constant
Bit rate : 192 Kbps
Channel(s) : 2 channels
Channel positions : Front: L R
Sampling rate : 48.0 KHz
Bit depth : 16 bits
Compression mode : Lossy
Stream size : 106 MiB (8%)
Alignment : Aligned on interleaves
Interleave, duration : 40 ms (1.00 video frame)
Interleave, preload duration : 512 ms
Download / Скачать

Хотите скачать бесплатно? Зарегистрируйтесь на сайте (ссылка на регистрацию). Pirat.ca - самый быстрый торрент трекер в рунете!

Как скачивать  ·   Что такое торрент  ·   Рейтинг и ограничения

erchine

44809

Пост 23-Фев-2013 16:21 (спустя 2 часа 17 минут)

[Q] 

Датские мультики больше на сказки похожи, чем на традиционные мультики . Они очень не линейные. И персонажи в них играют действительно, а не реплики произносят, как в мультиках других стран.
[Профиль]  [ЛС] 

zaii

Штурман

Пост 23-Фев-2013 19:41 (спустя 3 часа)

[Q] 

При чем тут Тарзан ?
[Профиль]  [ЛС] 

reynmar

Штурман

Пост 24-Фев-2013 22:55 (спустя 1 день 3 часа)

[Q] 

[Профиль]  [ЛС] 

HARDLING

Шкипер

Пост 28-Фев-2013 03:00 (спустя 3 дня)

[Q] 

328571При чем тут Тарзан ?
anime38 я тоже нифига не понял anime66
[Профиль]  [ЛС] 

rusik1909

Лоцман

Пост 02-Мар-2013 16:54 (спустя 2 дня 13 часов)

[Q] 

как мульт ?
пишите кто смотрел
[Профиль]  [ЛС] 

cssergey

Корсар

Пост 02-Мар-2013 21:39 (спустя 4 часа)

[Q] 

[Профиль]  [ЛС] 

koolega77

Морской Волк

Пост 04-Мар-2013 11:18 (спустя 1 день 13 часов)

[Q] 

интересный или нет
[Профиль]  [ЛС] 

vik238

Корсар

Пост 04-Мар-2013 20:10 (спустя 8 часов)

[Q] 

[Профиль]  [ЛС] 

shogun80

Лоцман

Пост 04-Мар-2013 23:47 (спустя 3 часа)

[Q] 

Рамзан- тормозня
[Профиль]  [ЛС] 

watsonix

Флибустьер

Пост 05-Мар-2013 01:20 (спустя 1 час 32 минуты)

[Q] 

[Профиль]  [ЛС] 

tu6enka

Флибустьер

Пост 11-Мар-2013 23:14 (спустя 6 дней)

[Q] 

Тарзан)
[Профиль]  [ЛС] 

glot.gr

Корсар

Пост 28-Мар-2013 15:36 (спустя 16 дней)

[Q] 

на разок

_________________
[Профиль]  [ЛС] 
Показать сообщения:    
Ответить на тему

Текущее время: Сегодня 22:29

Часовой пояс: GMT + 4



Вы не можете начинать темы
Вы не можете отвечать на сообщения
Вы не можете редактировать свои сообщения
Вы не можете удалять свои сообщения
Вы не можете голосовать в опросах
Вы не можете прикреплять файлы к сообщениям
Вы не можете скачивать файлы

▼ Вниз