ML
     
  Уважаемый Гость!
Вы можете поддержать проект и зарегистрироваться у наших партнеров - онлайн-стратегия MyLands. При регистрации в игре Вы получите код, который сможете активировать после регистрации на pirat.ca и получить 1000 дублонов.

Ваш код:
8dcb839cf1b47e56d6dc42d17f26b3e4822e9aee
 
     

Хранители снов / Rise of the Guardians (Питер Рэмси / Peter Ramsey) [2012 г., мультфильм, фэнтези, приключения, семейный, HDRip] Dub [Лицензия]

Страницы :  1, 2, 3  След.

Ответить на тему
 
Автор
Сообщение

Пост 26-Фев-2013 10:07

[Q] 

AGKRus36

-Хранители снов / Rise of the Guardians-«Naughty, nice. You better believe.»- Производство: США / DreamWorks Animation
Режиссер: Питер Рэмси / Peter Ramsey
Жанр: мультфильм, фэнтези, приключения, семейный
Год выпуска: 2012 г.
Продолжительность: 01:37:11-Мировая премьера: 10 октября 2012
Российская премьера: 22 ноября 2012, «Централ Партнершип»
Релиз на DVD: 25 марта 2013, «Новый Диск»
Релиз на Blu-Ray: 25 марта 2013, «Новый Диск»-Перевод: Профессиональный (полное дублирование) [Лицензия]
Роли озвучивали: Крис Пайн, Алек Болдуин, Джуд Лоу, Айла Фишер, Хью Джекман, Дакота Гойо, Хамани Гриффин, Камиль МакФедден, Джорджи Грив, Эмили Нордвинд-Описание: Когда злой дух Кромешник посягает на самое дорогое — детские мечты, Северянин, Ледяной Джек, Кролик, Зубная Фея и Песочный Человек впервые объединяются, чтобы создать команду Хранителей снов…-Сэмпл IMDB КиноПоискКачество видео: HDRip
Контейнер: AVI
Видео кодек: XviD
Аудио кодек: AC3
Видео: 720x400 (1.80:1), 23.976 fps, XviD MPEG-4 ~1561 kbps avg, 0.23 bit/pixel
Аудио: 48 kHz, AC3 Dolby Digital, 3/2 (L,C,R,l,r) + LFE ch, ~448 kbps
Cубтитры: отсутствуют
Золотой глобус, 2013 год
Номинации (1):
D:\Хранители снов\Hraniteli.snov.2012.D.HDRip.1400MB.avi
General
Complete name : D:\Хранители снов\Hraniteli.snov.2012.D.HDRip.1400MB.avi
Format : AVI
Format/Info : Audio Video Interleave
File size : 1.37 GiB
Duration : 1h 37mn
Overall bit rate : 2 018 Kbps
Writing application : VirtualDubMod 1.5.10.2 (build 2542/release)
Writing library : VirtualDubMod build 2542/release
Video #0
ID : 0
Format : MPEG-4 Visual
Format profile : Advanced [email protected]
Format settings, BVOP : 2
Format settings, QPel : No
Format settings, GMC : No warppoints
Format settings, Matrix : Default (MPEG)
Muxing mode : Packed bitstream
Codec ID : XVID
Codec ID/Hint : XviD
Duration : 1h 37mn
Bit rate : 1 561 Kbps
Width : 720 pixels
Height : 400 pixels
Display aspect ratio : 16:9
Frame rate : 23.976 fps
Color space : YUV
Chroma subsampling : 4:2:0
Bit depth : 8 bits
Scan type : Progressive
Compression mode : Lossy
Bits/(Pixel*Frame) : 0.226
Stream size : 1.06 GiB (77%)
Writing library : XviD 1.2.1 (UTC 2008-12-04)
Audio #1
ID : 1
Format : AC-3
Format/Info : Audio Coding 3
Mode extension : CM (complete main)
Format settings, Endianness : Big
Codec ID : 2000
Duration : 1h 37mn
Bit rate mode : Constant
Bit rate : 448 Kbps
Channel(s) : 6 channels
Channel positions : Front: L C R, Side: L R, LFE
Sampling rate : 48.0 KHz
Bit depth : 16 bits
Compression mode : Lossy
Delay relative to video : 4ms
Stream size : 311 MiB (22%)
Alignment : Split accross interleaves
Interleave, duration : 42 ms (1.00 video frame)
Interleave, preload duration : 500 ms
Торрент-файл перезалит в связи с появлением в сети Лицензии
Download / Скачать

Хотите скачать бесплатно? Зарегистрируйтесь на сайте (ссылка на регистрацию). Pirat.ca - самый быстрый торрент трекер в рунете!

Как скачивать  ·   Что такое торрент  ·   Рейтинг и ограничения



Последний раз редактировалось: AGKRus36 (2013-03-05 12:20), всего редактировалось 3 раз(а)

krendel1973

Флибустьер

Пост 26-Фев-2013 10:12 (спустя 4 минуты)

[Q] 

[Профиль]  [ЛС] 

SandroNek

Морской Волк

Пост 26-Фев-2013 10:33 (спустя 20 минут)

[Q] 

Благодарю
[Профиль]  [ЛС] 

sanktuum

Шкипер

Пост 26-Фев-2013 11:05 (спустя 32 минуты)

[Q] 

спасиб ждал
[Профиль]  [ЛС] 

Doctor-ZLO

Гроза морей

438

Пост 26-Фев-2013 11:08 (спустя 2 минуты)

[Q] 

Забираю!!будет что поглядеть!!

_________________
[Профиль]  [ЛС] 

kisu

Гроза морей

Пост 26-Фев-2013 13:08 (спустя 2 часа)

[Q] 

спасибо!давно ждал!
[Профиль]  [ЛС] 

dimonpa

Гроза морей

Пост 26-Фев-2013 14:58 (спустя 1 час 50 минут)

[Q] 

[Профиль]  [ЛС] 

Aleks44

Гроза морей

Пост 26-Фев-2013 16:36 (спустя 1 час 37 минут)

[Q] 

Обалденный мульт, звук и видео на 5
[Профиль]  [ЛС] 

analga

Морской Волк

Пост 26-Фев-2013 23:37 (спустя 7 часов)

[Q] 

[Профиль]  [ЛС] 

-RIDDICK-

Штурман

Пост 27-Фев-2013 09:32 (спустя 9 часов)

[Q] 

[Профиль]  [ЛС] 

madlen-cc

Лоцман

Пост 27-Фев-2013 09:50 (спустя 17 минут)

[Q] 

Мульт супер , давно таких не было, кролик вообще умат!!!!!!! Смотреть всем, я лично третий раз смотреть буду ba
[Профиль]  [ЛС] 

лесенок

Шкипер

Пост 27-Фев-2013 13:09 (спустя 3 часа)

[Q] 

[Профиль]  [ЛС] 

san89san86

Морской Волк

Пост 27-Фев-2013 17:08 (спустя 3 часа)

[Q] 

САМrip не впечатлил, попробуем в качестве.
[Профиль]  [ЛС] 

volkodav-10

Корсар

Пост 27-Фев-2013 17:43 (спустя 34 минуты)

[Q] 


_________________
Каждому своё.
[Профиль]  [ЛС] 

Inmix72

Шкипер

Пост 27-Фев-2013 19:52 (спустя 2 часа 8 минут)

[Q] 

люблю мультики
[Профиль]  [ЛС] 

Amon

Корсар

Пост 27-Фев-2013 20:16 (спустя 23 минуты)

[Q] 

[Профиль]  [ЛС] 

Valek3275

Морской Волк

Пост 27-Фев-2013 22:01 (спустя 1 час 45 минут)

[Q] 

[Профиль]  [ЛС] 

Нордрассиль

Шкипер

Пост 27-Фев-2013 23:42 (спустя 1 час 41 минута)

[Q] 

мульт нормальный, но как же бесит убогое морализаторство
[Профиль]  [ЛС] 

SlaG

Шкипер

33

Пост 28-Фев-2013 00:19 (спустя 36 минут)

[Q] 

надеюсь хоть тут сабов нет
[Профиль]  [ЛС] 

YBbI de FiiS

Корсар

Пост 28-Фев-2013 01:44 (спустя 1 час 25 минут)

[Q] 

Спасибо, добрый и хороший мульт
[Профиль]  [ЛС] 

rio+

Шкипер

Пост 28-Фев-2013 09:13 (спустя 7 часов)

[Q] 


_________________
[Профиль]  [ЛС] 

trogvar_10

Корсар

38

Пост 28-Фев-2013 23:58 (спустя 14 часов)

[Q] 

[Профиль]  [ЛС] 

aleks77l

Морской Волк

Пост 01-Мар-2013 11:36 (спустя 11 часов)

[Q] 

спосибо ребенок будет рад! ad ad ad
[Профиль]  [ЛС] 

jesus-w

Корсар

Пост 01-Мар-2013 18:30 (спустя 6 часов)

[Q] 

[Профиль]  [ЛС] 

vik238

Корсар

Пост 01-Мар-2013 21:56 (спустя 3 часа)

[Q] 

[Профиль]  [ЛС] 

Calvinman

Шкипер

Пост 02-Мар-2013 09:18 (спустя 11 часов)

[Q] 

[Профиль]  [ЛС] 

koolega77

Морской Волк

Пост 02-Мар-2013 11:19 (спустя 2 часа 1 минута)

[Q] 

дети довольны!
[Профиль]  [ЛС] 

red507

Лоцман

Пост 03-Мар-2013 11:18 (спустя 23 часа)

[Q] 

[Профиль]  [ЛС] 

ubadm

Морской Волк

Пост 03-Мар-2013 15:58 (спустя 4 часа)

[Q] 

[Профиль]  [ЛС] 

ab999

Шкипер

Пост 03-Мар-2013 20:53 (спустя 4 часа)

[Q] 

[Профиль]  [ЛС] 
Показать сообщения:    
Ответить на тему

Текущее время: Сегодня 04:19

Часовой пояс: GMT + 4



Вы не можете начинать темы
Вы не можете отвечать на сообщения
Вы не можете редактировать свои сообщения
Вы не можете удалять свои сообщения
Вы не можете голосовать в опросах
Вы не можете прикреплять файлы к сообщениям
Вы не можете скачивать файлы

▼ Вниз