ML
     
  Уважаемый Гость!
Вы можете поддержать проект и зарегистрироваться у наших партнеров - онлайн-стратегия MyLands. При регистрации в игре Вы получите код, который сможете активировать после регистрации на pirat.ca и получить 1000 дублонов.

Ваш код:
34514219cfad5497a1822ecc1269bea77988f9aa
 
     

Диномама 3D / Dino Time (Юн-сок Чхве, Джон Кафка / Yoon-suk Choi, John Kafka) [2012 г., мультфильм, комедия, приключения, семейный, DVDRip] Dub [Лицензия]

Ответить на тему
 
Автор
Сообщение

Пост 28-Фев-2013 11:57

[Q] 

AGKRus36

-Диномама 3D / Dino Time-«В Юрский период на машине времени»- Производство: США, Корея Южная / CJ Entertainment, Myriad Pictures, Toiion
Режиссер: Юн-сок Чхве, Джон Кафка / Yoon-suk Choi, John Kafka
Жанр: мультфильм, комедия, приключения, семейный
Год выпуска: 2012 г.
Продолжительность: 01:21:40-Мировая премьера: 30 ноября 2012
Российская премьера: 31 января 2013, «Наше Кино»
Релиз на Blu-Ray: 28 февраля 2013, «Флагман-Трейд»
Релиз на DVD: 28 февраля 2013, «Флагман-Трейд»-Перевод: Профессиональный (полное дублирование) [Лицензия]
Роли озвучивали: Памела Адлон, Роб Шнайдер, Джейн Линч, Стивен Болдуин, Уильям Болдуин, Тара Стронг, Мелани Гриффит, Юрий Ловенталь, Джессика Ди Чикко, Мелани Абрамофф-Описание: Эрни, его сестра Джулия и лучший друг Макс — неразлучная троица. Однажды, друзья без спроса залезли в странное устройство, которое сконструировал папа Макса, и случайно нажали кнопку запуска. Устройство оказалось машиной времени, и ребята очутились в Юрском периоде, прямо в гнезде Тираннозавра. Но вот радость: самка гигантского ящера приняла ребят за своих детенышей. Но не все, конечно, так безоблачно в мире хищников. Кое-кто мечтает полакомиться непрошеными гостями! Друзьям нужно немедленно уносить ноги и подумать о возвращении. Но как это сделать, если важная деталь машины исчезла?-Сэмпл IMDB КиноПоискКачество видео: DVDRip
Контейнер: AVI
Видео кодек: XviD
Аудио кодек: AC3
Видео: 720x400 (1.80:1), 25 fps, XviD MPEG-4 ~1937 kbps avg, 0.27 bit/pixel
Аудио: 48 kHz, AC3 Dolby Digital, 3/2 (L,C,R,l,r) + LFE ch, ~448 kbps
Cубтитры: отсутствуют
D:\Диномама 3D\DiH0mama.2012.D.DVDRip.1400Mb.avi
General
Complete name : D:\Диномама 3D\DiH0mama.2012.D.DVDRip.1400Mb.avi
Format : AVI
Format/Info : Audio Video Interleave
File size : 1.37 GiB
Duration : 1h 21mn
Overall bit rate : 2 395 Kbps
Writing application : VirtualDubMod 1.5.10.2 (build 2542/release)
Writing library : VirtualDubMod build 2542/release
Video #0
ID : 0
Format : MPEG-4 Visual
Format profile : Advanced [email protected]
Format settings, BVOP : 2
Format settings, QPel : No
Format settings, GMC : No warppoints
Format settings, Matrix : Default (MPEG)
Muxing mode : Packed bitstream
Codec ID : XVID
Codec ID/Hint : XviD
Duration : 1h 21mn
Bit rate : 1 937 Kbps
Width : 720 pixels
Height : 400 pixels
Display aspect ratio : 16:9
Frame rate : 25.000 fps
Color space : YUV
Chroma subsampling : 4:2:0
Bit depth : 8 bits
Scan type : Progressive
Compression mode : Lossy
Bits/(Pixel*Frame) : 0.269
Stream size : 1.11 GiB (81%)
Writing library : XviD 1.2.1 (UTC 2008-12-04)
Audio #1
ID : 1
Format : AC-3
Format/Info : Audio Coding 3
Mode extension : CM (complete main)
Format settings, Endianness : Big
Codec ID : 2000
Duration : 1h 21mn
Bit rate mode : Constant
Bit rate : 448 Kbps
Channel(s) : 6 channels
Channel positions : Front: L C R, Side: L R, LFE
Sampling rate : 48.0 KHz
Bit depth : 16 bits
Compression mode : Lossy
Stream size : 263 MiB (19%)
Alignment : Split accross interleaves
Interleave, duration : 40 ms (1.00 video frame)
Interleave, preload duration : 500 ms
Download / Скачать

Хотите скачать бесплатно? Зарегистрируйтесь на сайте (ссылка на регистрацию). Pirat.ca - самый быстрый торрент трекер в рунете!

Как скачивать  ·   Что такое торрент  ·   Рейтинг и ограничения

Пост 28-Фев-2013 12:16 (спустя 19 минут)

Топик был перенесен из форума Мультфильмы (Трюм) в форум Новинки (HD|DVD|BD|TV|SAT|PDTV| - Rips)

erchine
 

dimonpa

Гроза морей

Пост 28-Фев-2013 12:50 (спустя 52 минуты)

[Q] 

[Профиль]  [ЛС] 

leonid.

Флибустьер

Пост 28-Фев-2013 16:52 (спустя 4 часа)

[Q] 

Спасибо!
[Профиль]  [ЛС] 

koolega77

Морской Волк

Пост 04-Мар-2013 11:04 (спустя 3 дня)

[Q] 

спасибо
[Профиль]  [ЛС] 

kolesnikovich

Лоцман

Пост 04-Мар-2013 17:31 (спустя 6 часов)

[Q] 

Как мульт,кто смотрел уже?????
[Профиль]  [ЛС] 

gamm1beer

Морской Волк

Пост 04-Мар-2013 20:49 (спустя 3 часа)

[Q] 

хороший добрый мультик - даже взрослому было интересно aa

_________________
[Профиль]  [ЛС] 

dan13

Штурман

60

Пост 05-Мар-2013 22:58 (спустя 1 день 2 часа)

[Q] 

[Профиль]  [ЛС] 

vik238

Корсар

Пост 23-Мар-2013 11:39 (спустя 17 дней)

[Q] 

[Профиль]  [ЛС] 

youfate

Корсар

Пост 23-Мар-2013 13:58 (спустя 2 часа 18 минут)

[Q] 

[Профиль]  [ЛС] 
Показать сообщения:    
Ответить на тему

Текущее время: Сегодня 07:53

Часовой пояс: GMT + 4



Вы не можете начинать темы
Вы не можете отвечать на сообщения
Вы не можете редактировать свои сообщения
Вы не можете удалять свои сообщения
Вы не можете голосовать в опросах
Вы не можете прикреплять файлы к сообщениям
Вы не можете скачивать файлы

▼ Вниз